<?xml version="1.0" standalone="no"?>
<!DOCTYPE svg PUBLIC "-//W3C//DTD SVG 1.1//EN" "http://www.w3.org/Graphics/SVG/1.1/DTD/svg11.dtd" >
<svg xmlns="http://www.w3.org/2000/svg" xmlns:xlink="http://www.w3.org/1999/xlink" version="1.1">
<metadata>
Created by FontForge 20170731 at Sat Mar 25 21:23:38 2000
 By Aleksey,,,
Copyright 1999-2000 Galapagos Design Group. All rights reserved.
</metadata>
<defs>
<font id="Futura-Bold" horiz-adv-x="1405" >
  <font-face 
    font-family="Futura Bk"
    font-weight="700"
    font-stretch="normal"
    units-per-em="2048"
    panose-1="2 11 8 2 2 2 4 2 2 4"
    ascent="1556"
    descent="-492"
    x-height="1053"
    cap-height="1544"
    bbox="-362 -553 2873 2206"
    underline-thickness="285"
    underline-position="-692"
    unicode-range="U+0020-FB02"
  />
<missing-glyph horiz-adv-x="1229" 
d="M102 -362v1806h1024v-1806h-1024zM217 -248h795v1577h-795v-1577z" />
    <glyph glyph-name=".notdef" horiz-adv-x="1229" 
d="M102 -362v1806h1024v-1806h-1024zM217 -248h795v1577h-795v-1577z" />
    <glyph glyph-name=".null" horiz-adv-x="0" 
 />
    <glyph glyph-name="nonmarkingreturn" horiz-adv-x="705" 
 />
    <glyph glyph-name="space" unicode=" " horiz-adv-x="705" 
 />
    <glyph glyph-name="exclam" unicode="!" horiz-adv-x="786" 
d="M604 180q0 -90 -61.5 -151.5t-151.5 -61.5q-88 0 -148.5 61.5t-60.5 151.5q0 88 60.5 149.5t148.5 61.5q90 0 151.5 -61t61.5 -150zM588 506h-389v1038h389v-1038z" />
    <glyph glyph-name="quotedbl" unicode="&#x22;" horiz-adv-x="1024" 
d="M397 958h-233v586h233v-586zM860 958h-233v586h233v-586z" />
    <glyph glyph-name="numbersign" unicode="#" 
d="M848 893h-256l-33 -242h256zM1386 1133l-40 -240h-240l-33 -240h248l-37 -241h-246l-59 -412h-262l57 412h-246l-59 -412h-262l57 412h-246l39 241h242l35 240h-254l41 240h250l59 411h262l-57 -411h246l59 411h262l-57 -411h241z" />
    <glyph glyph-name="dollar" unicode="$" 
d="M1245 502q0 -212 -122.5 -347t-331.5 -155v-254h-164l-1 254q-156 3 -285 56.5t-241 160.5l189 287q83 -96 174 -142.5t199 -46.5q85 0 133.5 35t48.5 99q0 75 -45.5 115.5t-196.5 80.5q-223 59 -323.5 165.5t-100.5 281.5q0 197 117 315t332 137v193h164v-193
q107 -12 200.5 -44.5t169.5 -84.5l-133 -299q-69 59 -144 90t-149 31q-78 0 -123 -30t-45 -83q0 -101 218 -160q18 -5 29 -8q226 -60 328.5 -169t102.5 -285z" />
    <glyph glyph-name="percent" unicode="%" horiz-adv-x="1997" 
d="M668 1176q0 77 -52.5 131.5t-128.5 54.5q-75 0 -127.5 -54.5t-52.5 -131.5q0 -78 52.5 -132.5t127.5 -54.5q76 0 128.5 54.5t52.5 132.5zM1690 369q0 78 -52.5 132t-128.5 54q-75 0 -127.5 -54t-52.5 -132t52.5 -132.5t127.5 -54.5q76 0 128.5 54.5t52.5 132.5zM893 1176
q0 -166 -119 -284t-287 -118q-167 0 -286 118t-119 284q0 165 119 283t286 118q168 0 287 -118t119 -283zM1548 1577l-925 -1610h-197l926 1610h196zM1915 369q0 -166 -119 -284t-287 -118q-167 0 -286 118t-119 284q0 165 119 283t286 118q168 0 287 -118t119 -283z" />
    <glyph glyph-name="ampersand" unicode="&#x26;" horiz-adv-x="1737" 
d="M897 377l-238 262q-75 -42 -115 -96t-40 -113q0 -69 47 -117.5t117 -48.5q52 0 109 28t120 85zM940 1186q0 56 -36 90.5t-95 34.5q-67 0 -104 -36t-37 -99q0 -26 16 -65.5t39 -68.5l59 -73l52 41q51 41 78.5 86.5t27.5 89.5zM1706 0h-463l-135 150q-100 -95 -221 -139
t-287 -44q-204 0 -336.5 123t-132.5 311q0 142 77.5 243.5t272.5 207.5q-65 77 -101 167.5t-36 176.5q0 171 121 276t330 105q216 0 334 -104t118 -293q0 -107 -71 -206t-213 -190l180 -192q57 48 110.5 102.5t104.5 114.5l217 -229q-51 -65 -103 -120.5t-106 -101.5z" />
    <glyph glyph-name="quotesingle" unicode="'" horiz-adv-x="512" 
d="M373 958h-234v586h234v-586z" />
    <glyph glyph-name="parenleft" unicode="(" horiz-adv-x="721" 
d="M715 -334l-236 -158q-189 215 -283 471.5t-94 563.5q0 306 94 562.5t283 471.5l236 -158q-143 -173 -216 -394t-73 -482q0 -267 71.5 -484.5t217.5 -392.5z" />
    <glyph glyph-name="parenright" unicode=")" horiz-adv-x="721" 
d="M618 543q0 -307 -93.5 -563.5t-282.5 -471.5l-236 158q146 175 217.5 392.5t71.5 484.5q0 261 -73 482t-216 394l236 158q189 -215 282.5 -471.5t93.5 -562.5z" />
    <glyph glyph-name="asterisk" unicode="*" horiz-adv-x="989" 
d="M895 1038l-109 -186l-223 174l39 -281h-215l39 281l-223 -174l-109 186l264 107l-264 106l109 187l223 -174l-39 280h215l-39 -280l223 174l109 -187l-262 -106z" />
    <glyph glyph-name="plus" unicode="+" 
d="M1329 518h-502v-518h-247v518h-504v242h504v516h247v-516h502v-242z" />
    <glyph glyph-name="comma" unicode="," horiz-adv-x="702" 
d="M553 354l-324 -655h-288l223 655h389z" />
    <glyph glyph-name="hyphen" unicode="-" horiz-adv-x="803" 
d="M737 377h-671v319h671v-319z" />
    <glyph glyph-name="period" unicode="." horiz-adv-x="702" 
d="M563 180q0 -90 -61.5 -151.5t-151.5 -61.5q-88 0 -149.5 62t-61.5 151q0 88 61 148.5t150 60.5q90 0 151.5 -60t61.5 -149z" />
    <glyph glyph-name="slash" unicode="/" horiz-adv-x="1186" 
d="M1133 1577l-891 -1776h-252l891 1776h252z" />
    <glyph glyph-name="zero" unicode="0" 
d="M924 774q0 227 -54 338t-165 111q-115 0 -169.5 -110t-54.5 -339q0 -227 55.5 -339.5t168.5 -112.5q110 0 164.5 112t54.5 340zM1323 760q0 -356 -171.5 -574.5t-446.5 -218.5q-278 0 -450.5 222t-172.5 585q0 362 172.5 582.5t450.5 220.5q281 0 449.5 -221t168.5 -596z
" />
    <glyph glyph-name="one" unicode="1" 
d="M913 0h-399v1204h-328l181 340h546v-1544z" />
    <glyph glyph-name="two" unicode="2" 
d="M1257 1073q0 -111 -49 -216.5t-157 -225.5l-275 -301h467v-330h-1188l688 813q57 66 86 132t29 126q0 82 -48.5 132t-129.5 50q-101 0 -152 -66t-51 -198h-368q0 268 156.5 428t420.5 160q256 0 413.5 -141.5t157.5 -362.5z" />
    <glyph glyph-name="three" unicode="3" 
d="M1282 469q0 -232 -158 -367t-432 -135q-272 0 -425.5 144.5t-153.5 404.5h387q0 -108 47 -164.5t139 -56.5q89 0 143 51.5t54 132.5q0 104 -64 148.5t-207 44.5v266q128 0 183 41.5t55 130.5q0 69 -47 113.5t-121 44.5q-80 0 -125 -43.5t-45 -120.5h-368q4 219 153 346
t405 127q233 0 376 -116t143 -300q0 -123 -62 -212.5t-172 -123.5q120 -14 207.5 -116t87.5 -240z" />
    <glyph glyph-name="four" unicode="4" 
d="M774 639v604l-375 -604h375zM1315 342h-168v-342h-373v342h-696v303l569 899h500v-905h168v-297z" />
    <glyph glyph-name="five" unicode="5" horiz-adv-x="1411" 
d="M1237 510q0 -252 -171 -397.5t-468 -145.5q-138 0 -261 32t-210 91l47 371q56 -84 157 -135.5t210 -51.5q145 0 220 64.5t75 189.5q0 112 -83.5 191.5t-215.5 79.5q-96 0 -193 -27.5t-164 -73.5l131 846h834v-327h-582l-31 -183q55 10 102.5 15.5t88.5 5.5
q235 0 374.5 -148t139.5 -397z" />
    <glyph glyph-name="six" unicode="6" 
d="M926 506q0 106 -65 170.5t-167 64.5q-103 0 -167 -66t-64 -169q0 -93 63 -154t168 -61t168.5 58t63.5 157zM1294 524q0 -250 -163.5 -403.5t-432.5 -153.5t-429 152t-160 403q0 230 273 652l11 18l228 352h428l-373 -538q42 11 81.5 16.5t78.5 5.5q205 0 331.5 -140
t126.5 -364z" />
    <glyph glyph-name="seven" unicode="7" 
d="M1337 1544l-700 -1544h-434l577 1204h-647v340h1204z" />
    <glyph glyph-name="eight" unicode="8" 
d="M913 467q0 94 -56.5 147.5t-156.5 53.5q-98 0 -153 -53.5t-55 -147.5t56 -148.5t152 -54.5q100 0 156.5 54t56.5 149zM883 1141q0 80 -48.5 125t-134.5 45q-83 0 -130.5 -45.5t-47.5 -124.5q0 -81 48.5 -128.5t129.5 -47.5q84 0 133.5 47.5t49.5 128.5zM1286 430
q0 -217 -155 -340t-431 -123q-275 0 -428 122.5t-153 340.5q0 161 83 265.5t232 131.5q-116 27 -185 119t-69 217q0 194 137.5 304t382.5 110q246 0 385.5 -110t139.5 -304q0 -125 -69 -217t-185 -119q149 -27 232 -131.5t83 -265.5z" />
    <glyph glyph-name="nine" unicode="9" 
d="M942 1038q0 94 -63 154.5t-168 60.5t-168.5 -58t-63.5 -157q0 -106 65 -170.5t167 -64.5q103 0 167 66t64 169zM1296 1022q0 -230 -273 -652l-11 -18l-228 -352h-428l373 539q-42 -12 -82 -17.5t-78 -5.5q-204 0 -331 145.5t-127 358.5q0 250 163.5 403.5t432.5 153.5
t429 -152t160 -403z" />
    <glyph glyph-name="colon" unicode=":" horiz-adv-x="702" 
d="M563 180q0 -90 -61.5 -151.5t-151.5 -61.5q-88 0 -149.5 62t-61.5 151q0 88 61 148.5t150 60.5q90 0 151.5 -60t61.5 -149zM563 877q0 -91 -61.5 -152t-151.5 -61q-88 0 -149.5 61.5t-61.5 151.5q0 87 61 147.5t150 60.5q90 0 151.5 -60t61.5 -148z" />
    <glyph glyph-name="semicolon" unicode=";" horiz-adv-x="702" 
d="M553 354l-324 -655h-288l223 655h389zM563 877q0 -91 -60.5 -152t-150.5 -61q-89 0 -151 61.5t-62 151.5q0 87 62 147.5t151 60.5q90 0 150.5 -60t60.5 -148z" />
    <glyph glyph-name="less" unicode="&#x3c;" 
d="M1319 8l-1233 508v244l1233 510v-264l-893 -367l893 -365v-266z" />
    <glyph glyph-name="equal" unicode="=" 
d="M1329 285h-1253v241h1253v-241zM1329 752h-1253v241h1253v-241z" />
    <glyph glyph-name="greater" unicode="&#x3e;" 
d="M1319 516l-1233 -508v266l893 365l-893 367v264l1233 -510v-244z" />
    <glyph glyph-name="question" unicode="?" horiz-adv-x="1219" 
d="M819 178q0 -90 -59.5 -150.5t-149.5 -60.5q-89 0 -151 61t-62 150q0 88 62 149.5t151 61.5t149 -60.5t60 -150.5zM1128 1108q0 -174 -93.5 -284t-243.5 -113v-205h-361v414h111q111 0 163 44.5t52 141.5q0 75 -41.5 123.5t-106.5 48.5q-75 0 -117 -40.5t-42 -113.5h-359
q0 211 146.5 332t388.5 121q222 0 362.5 -131t140.5 -338z" />
    <glyph glyph-name="at" unicode="@" horiz-adv-x="1516" 
d="M885 872q-9 63 -37.5 95t-75.5 32q-80 0 -137 -95t-57 -238q0 -69 24.5 -101.5t77.5 -32.5t105 60.5t71 146.5zM1495 926q0 -248 -121 -414t-327 -166q-75 0 -124 29t-67 84q-42 -56 -96 -83.5t-121 -27.5q-129 0 -198.5 83.5t-69.5 236.5q0 218 112.5 367t278.5 149
q57 0 102 -23.5t76 -68.5l31 63h174l-117 -537q0 -1 -1 -6q-3 -18 -3 -24q0 -28 12.5 -42t36.5 -14q108 0 166.5 102t58.5 294q0 211 -129 338t-346 127q-281 0 -443.5 -181.5t-162.5 -498.5q0 -261 144 -406t403 -145q126 0 244 43.5t227 130.5l80 -158
q-123 -106 -258 -158.5t-289 -52.5q-341 0 -544.5 199t-203.5 545q0 382 226 624t581 242q290 0 479 -181t189 -470z" />
    <glyph glyph-name="A" unicode="A" horiz-adv-x="1599" 
d="M1008 571l-205 656l-207 -656h412zM1610 0h-430l-84 274h-590l-86 -274h-430l549 1544h522z" />
    <glyph glyph-name="B" unicode="B" horiz-adv-x="1386" 
d="M913 471q0 92 -66 134t-214 42h-96v-350h90q145 0 215.5 43t70.5 131zM813 1085q0 86 -57.5 124t-184.5 38h-34v-313h28q131 0 189.5 35t58.5 116zM1315 446q0 -241 -166 -343.5t-582 -102.5h-424v1544h389q388 0 531 -93t143 -290q0 -123 -64.5 -211.5t-172.5 -118.5
q149 -11 247.5 -119t98.5 -266z" />
    <glyph glyph-name="C" unicode="C" horiz-adv-x="1352" 
d="M1270 63q-74 -47 -178.5 -71.5t-231.5 -24.5q-340 0 -564 228t-224 575t224.5 577t563.5 230q130 0 233 -24t177 -72v-457q-70 78 -166.5 121t-200.5 43q-185 0 -299.5 -117.5t-114.5 -308.5q0 -178 116 -292t298 -114q101 0 199.5 43.5t167.5 120.5v-457z" />
    <glyph glyph-name="D" unicode="D" horiz-adv-x="1540" 
d="M1051 770q0 223 -114.5 328.5t-356.5 105.5h-35v-864h35q243 0 357 104.5t114 325.5zM1468 770q0 -390 -227 -580t-704 -190h-394v1544h334q529 0 760 -188t231 -586z" />
    <glyph glyph-name="E" unicode="E" horiz-adv-x="1126" 
d="M1026 0h-883v1544h883v-340h-481v-258h461v-328h-461v-278h481v-340z" />
    <glyph glyph-name="F" unicode="F" horiz-adv-x="1110" 
d="M1042 1217h-497v-271h467v-328h-467v-618h-402v1544h899v-327z" />
    <glyph glyph-name="G" unicode="G" horiz-adv-x="1724" 
d="M1653 797q0 -408 -196.5 -619t-575.5 -211q-354 0 -581.5 224t-227.5 577q0 349 233 579t586 230q223 0 397.5 -89.5t292.5 -264.5l-362 -176q-65 89 -146 132.5t-182 43.5q-185 0 -293.5 -126.5t-108.5 -344.5q0 -206 106.5 -327.5t285.5 -121.5q156 0 253.5 71.5
t112.5 192.5h-383v328h789v-98z" />
    <glyph glyph-name="H" unicode="H" horiz-adv-x="1645" 
d="M1501 0h-401v618h-555v-618h-402v1544h402v-598h555v598h401v-1544z" />
    <glyph glyph-name="I" unicode="I" horiz-adv-x="664" 
d="M532 0h-401v1544h401v-1544z" />
    <glyph glyph-name="J" unicode="J" horiz-adv-x="1001" 
d="M858 541q0 -284 -120 -429t-357 -145q-158 0 -266.5 59.5t-163.5 176.5l256 231q14 -48 48 -80t75 -32q81 0 104 70t23 278v874h401v-1003z" />
    <glyph glyph-name="K" unicode="K" horiz-adv-x="1552" 
d="M1567 0h-510l-512 721v-721h-402v1544h402v-696l518 696h475l-598 -747z" />
    <glyph glyph-name="L" unicode="L" horiz-adv-x="1014" 
d="M979 0h-836v1544h418v-1190h418v-354z" />
    <glyph glyph-name="M" unicode="M" horiz-adv-x="2013" 
d="M1946 0h-400l-127 944l-274 -944h-277l-274 944l-129 -944h-397l235 1544h422l283 -971l280 971h422z" />
    <glyph glyph-name="N" unicode="N" horiz-adv-x="1804" 
d="M1661 0h-401l-715 958v-958h-402v1544h404l713 -960v960h401v-1544z" />
    <glyph glyph-name="O" unicode="O" horiz-adv-x="1817" 
d="M1327 770q0 178 -118.5 298t-299.5 120q-185 0 -302.5 -118.5t-117.5 -299.5q0 -178 118.5 -296t301.5 -118q182 0 300 118.5t118 295.5zM1745 770q0 -341 -240.5 -572t-595.5 -231q-356 0 -596.5 231t-240.5 572q0 340 241.5 573.5t595.5 233.5q355 0 595.5 -233
t240.5 -574z" />
    <glyph glyph-name="P" unicode="P" horiz-adv-x="1354" 
d="M864 1024q0 101 -61.5 147t-202.5 46h-55v-383h51q146 0 207 44t61 146zM1282 1018q0 -254 -170 -383t-502 -129h-65v-506h-402v1544h449q357 0 523.5 -129.5t166.5 -396.5z" />
    <glyph glyph-name="Q" unicode="Q" horiz-adv-x="1817" 
d="M1327 770q0 178 -118.5 298t-299.5 120q-185 0 -302.5 -118.5t-117.5 -299.5q0 -178 118.5 -296t301.5 -118q20 0 39.5 1.5t38.5 5.5l-188 247l336 41l106 -141q42 55 64 121t22 139zM1745 770q0 -171 -66.5 -323.5t-189.5 -264.5l244 -321l-336 -41l-158 209
q-79 -31 -161.5 -46.5t-168.5 -15.5q-356 0 -596.5 231t-240.5 572q0 340 241.5 573.5t595.5 233.5q355 0 595.5 -233t240.5 -574z" />
    <glyph glyph-name="R" unicode="R" horiz-adv-x="1393" 
d="M877 1004q0 114 -57.5 163.5t-194.5 49.5h-80v-410h73q133 0 196 48t63 149zM1372 0h-473l-354 600v-600h-402v1544h471q376 0 528 -117.5t152 -371.5q0 -178 -88 -290.5t-256 -148.5z" />
    <glyph glyph-name="S" unicode="S" horiz-adv-x="1262" 
d="M1176 487q0 -237 -164 -378.5t-437 -141.5q-160 0 -289 53.5t-255 172.5l188 290q85 -96 174 -142t191 -46q84 0 137 44t53 114q0 76 -48.5 118.5t-209.5 83.5q-215 56 -315.5 163.5t-100.5 281.5q0 214 147.5 345.5t387.5 131.5q129 0 242 -34t213 -103l-132 -310
q-68 58 -143.5 88.5t-150.5 30.5q-80 0 -127.5 -31.5t-47.5 -84.5q0 -103 227 -162q15 -4 23 -6q233 -62 335 -175t102 -303z" />
    <glyph glyph-name="T" unicode="T" horiz-adv-x="1092" 
d="M1061 1190h-313v-1190h-402v1190h-315v354h1030v-354z" />
    <glyph glyph-name="U" unicode="U" horiz-adv-x="1593" 
d="M1460 713q0 -430 -148.5 -588t-514.5 -158q-367 0 -515.5 158t-148.5 588v831h402v-835q0 -228 57 -307.5t205 -79.5q147 0 204.5 79.5t57.5 307.5v835h401v-831z" />
    <glyph glyph-name="V" unicode="V" horiz-adv-x="1559" 
d="M1569 1544l-631 -1544h-317l-631 1544h436l354 -973l353 973h436z" />
    <glyph glyph-name="W" unicode="W" horiz-adv-x="2288" 
d="M2298 1544l-549 -1544h-338l-266 903l-268 -903h-338l-549 1544h436l293 -973l260 973h330l260 -973l293 973h436z" />
    <glyph glyph-name="X" unicode="X" horiz-adv-x="1616" 
d="M1602 0h-482l-311 514l-334 -514h-461l547 817l-493 727h462l279 -428l278 428h482l-533 -735z" />
    <glyph glyph-name="Y" unicode="Y" horiz-adv-x="1462" 
d="M1468 1544l-538 -846v-698h-398v698l-538 846h479l258 -508l258 508h479z" />
    <glyph glyph-name="Z" unicode="Z" horiz-adv-x="1448" 
d="M1427 1544l-743 -1204h676v-340h-1350l746 1206h-619v338h1290z" />
    <glyph glyph-name="bracketleft" unicode="[" horiz-adv-x="717" 
d="M657 -459h-524v2003h524v-254h-227v-1495h227v-254z" />
    <glyph glyph-name="backslash" unicode="\" horiz-adv-x="1186" 
d="M1196 -199h-252l-891 1776h252z" />
    <glyph glyph-name="bracketright" unicode="]" horiz-adv-x="717" 
d="M584 -459h-525v254h228v1495h-228v254h525v-2003z" />
    <glyph glyph-name="asciicircum" unicode="^" 
d="M1196 850h-276l-218 418l-217 -418h-276l342 694h303z" />
    <glyph glyph-name="underscore" unicode="_" horiz-adv-x="1024" 
d="M1024 -506h-1024v252h1024v-252z" />
    <glyph glyph-name="grave" unicode="`" horiz-adv-x="823" 
d="M582 1319l-93 -141l-391 198l133 201z" />
    <glyph glyph-name="a" unicode="a" horiz-adv-x="1397" 
d="M901 524q0 125 -58 194.5t-157 69.5q-101 0 -163 -71t-62 -193q0 -120 60.5 -190t164.5 -70q97 0 156 71.5t59 188.5zM1268 0h-367v143q-56 -93 -140.5 -134.5t-215.5 -41.5q-212 0 -342.5 153t-130.5 404q0 260 131 410.5t354 150.5q117 0 200.5 -43t143.5 -133v144h367
v-1053z" />
    <glyph glyph-name="b" unicode="b" horiz-adv-x="1397" 
d="M936 528q0 121 -60.5 190.5t-164.5 69.5q-97 0 -156 -71.5t-59 -188.5q0 -125 58 -194.5t157 -69.5q101 0 163 71.5t62 192.5zM1325 528q0 -259 -131 -410t-354 -151q-117 0 -200.5 43t-143.5 133v-143h-367v1690h367v-781q49 97 129 136.5t227 39.5q212 0 342.5 -153
t130.5 -404z" />
    <glyph glyph-name="c" unicode="c" horiz-adv-x="989" 
d="M907 41q-65 -39 -128 -56.5t-142 -17.5q-261 0 -413 150.5t-152 408.5q0 248 154 403.5t415 155.5q77 0 144.5 -16.5t121.5 -48.5v-350q-37 43 -92.5 67.5t-114.5 24.5q-110 0 -174.5 -64.5t-64.5 -169.5q0 -115 63.5 -176t184.5 -61q48 0 103.5 25.5t94.5 66.5v-342z
" />
    <glyph glyph-name="d" unicode="d" horiz-adv-x="1397" 
d="M901 528q0 117 -59 188.5t-156 71.5q-104 0 -164.5 -69.5t-60.5 -190.5t62 -192.5t163 -71.5q99 0 157 69.5t58 194.5zM1268 0h-367v143q-60 -90 -143.5 -133t-200.5 -43q-223 0 -354 151t-131 410q0 251 130.5 404t342.5 153q147 0 227 -39.5t129 -136.5v781h367v-1690z
" />
    <glyph glyph-name="e" unicode="e" horiz-adv-x="1249" 
d="M819 660q-10 93 -63 146.5t-135 53.5q-83 0 -136 -57.5t-55 -142.5h389zM1178 455h-748q0 -108 58.5 -170t154.5 -62q60 0 117.5 32.5t83.5 86.5l280 -113q-76 -142 -190 -202t-297 -60q-270 0 -417.5 145t-147.5 404q0 254 150 411.5t401 157.5q259 0 407 -163t148 -451
v-16z" />
    <glyph glyph-name="f" unicode="f" horiz-adv-x="795" 
d="M754 756h-207v-756h-373v756h-123v297h123v252q0 201 107.5 306t314.5 105q31 0 72.5 -4.5t85.5 -13.5v-297q-24 8 -48.5 13t-41.5 5q-58 0 -87.5 -33.5t-29.5 -99.5v-233h207v-297z" />
    <glyph glyph-name="g" unicode="g" horiz-adv-x="1386" 
d="M901 541q0 121 -55.5 184t-159.5 63q-105 0 -165 -64.5t-60 -182.5q0 -117 59 -180.5t166 -63.5q100 0 157.5 65t57.5 179zM1268 -43q0 -250 -152.5 -380t-445.5 -130q-237 0 -386 116t-149 292h385q0 -47 50 -77t128 -30q109 0 156 66.5t47 214.5v147
q-49 -97 -129 -136.5t-227 -39.5q-215 0 -344 146.5t-129 394.5q0 256 129 400t356 144q117 0 200.5 -43t143.5 -133v144h367v-1096z" />
    <glyph glyph-name="h" unicode="h" horiz-adv-x="1354" 
d="M1235 0h-373v547q0 134 -36 187.5t-124 53.5q-104 0 -152 -87.5t-48 -274.5v-426h-373v1690h373v-813q71 115 151 161.5t205 46.5q202 0 289.5 -114t87.5 -371v-600z" />
    <glyph glyph-name="i" unicode="i" horiz-adv-x="618" 
d="M496 0h-373v1053h373v-1053zM514 1372q0 -85 -60.5 -147t-144.5 -62q-83 0 -144 62.5t-61 146.5t60.5 144.5t144.5 60.5q85 0 145 -59.5t60 -145.5z" />
    <glyph glyph-name="j" unicode="j" horiz-adv-x="618" 
d="M496 -532h-373v1585h373v-1585zM514 1372q0 -85 -60.5 -147t-144.5 -62q-83 0 -144 62.5t-61 146.5t60.5 144.5t144.5 60.5q85 0 145 -59.5t60 -145.5z" />
    <glyph glyph-name="k" unicode="k" horiz-adv-x="1409" 
d="M1391 0h-492l-397 469v-469h-373v1690h373v-1094l383 457h463l-476 -504z" />
    <glyph glyph-name="l" unicode="l" horiz-adv-x="618" 
d="M496 0h-373v1690h373v-1690z" />
    <glyph glyph-name="m" unicode="m" horiz-adv-x="2025" 
d="M1907 0h-373v547q0 124 -36.5 182.5t-113.5 58.5q-96 0 -138 -82t-42 -280v-426h-373v547q0 124 -36 182.5t-113 58.5q-96 0 -138 -82t-42 -280v-426h-373v1053h373v-166q53 95 137.5 146.5t187.5 51.5q143 0 226.5 -54.5t120.5 -170.5q54 114 143 169.5t213 55.5
q202 0 289.5 -114t87.5 -371v-600z" />
    <glyph glyph-name="n" unicode="n" horiz-adv-x="1354" 
d="M1235 0h-373v547q0 134 -36 187.5t-124 53.5q-102 0 -151 -88.5t-49 -273.5v-426h-373v1053h373v-176q71 115 151 161.5t205 46.5q202 0 289.5 -114t87.5 -371v-600z" />
    <glyph glyph-name="o" unicode="o" horiz-adv-x="1356" 
d="M895 526q0 100 -62 168t-155 68q-98 0 -157.5 -68t-59.5 -168q0 -107 58.5 -171t158.5 -64q96 0 156.5 64t60.5 171zM1284 526q0 -240 -171.5 -399.5t-434.5 -159.5q-266 0 -436 159t-170 400q0 237 174 398t432 161q264 0 435 -156.5t171 -402.5z" />
    <glyph glyph-name="p" unicode="p" horiz-adv-x="1397" 
d="M936 524q0 122 -62 193t-163 71q-99 0 -157 -69.5t-58 -194.5q0 -117 59 -188.5t156 -71.5q104 0 164.5 70t60.5 190zM1325 524q0 -251 -130.5 -404t-342.5 -153q-147 0 -227 39.5t-129 136.5v-675h-367v1585h367v-144q60 90 143.5 133t200.5 43q223 0 354 -150.5
t131 -410.5z" />
    <glyph glyph-name="q" unicode="q" horiz-adv-x="1397" 
d="M901 524q0 125 -58 194.5t-157 69.5q-101 0 -163 -71t-62 -193q0 -120 60.5 -190t164.5 -70q97 0 156 71.5t59 188.5zM1268 -532h-367v675q-49 -97 -129 -136.5t-227 -39.5q-212 0 -342.5 153t-130.5 404q0 260 131 410.5t354 150.5q117 0 200.5 -43t143.5 -133v144h367
v-1585z" />
    <glyph glyph-name="r" unicode="r" horiz-adv-x="928" 
d="M928 1079l-38 -364q-40 11 -70 15.5t-58 4.5q-132 0 -197 -79.5t-65 -239.5v-416h-371v1053h371v-203q57 120 136.5 177.5t184.5 57.5q20 0 46.5 -1.5t60.5 -4.5z" />
    <glyph glyph-name="s" unicode="s" horiz-adv-x="1051" 
d="M993 322q0 -162 -123 -258.5t-331 -96.5q-138 0 -256.5 32t-225.5 97l78 285q79 -70 178 -109t199 -39q69 0 99 19t30 61q0 73 -143 107q-43 10 -68 16q-165 43 -242 119.5t-77 196.5q0 152 115 242.5t313 90.5q114 0 216 -23t206 -73l-76 -256q-70 48 -151 75.5
t-154 27.5q-65 0 -97 -18.5t-32 -55.5q0 -56 148 -95q60 -15 95 -26q160 -49 229.5 -124t69.5 -195z" />
    <glyph glyph-name="t" unicode="t" horiz-adv-x="737" 
d="M727 756h-180v-756h-373v756h-123v297h123v317h373v-317h180v-297z" />
    <glyph glyph-name="u" unicode="u" horiz-adv-x="1350" 
d="M1231 524q0 -289 -133.5 -423t-421.5 -134q-289 0 -423 133.5t-134 423.5v529h373v-537q0 -139 41 -195.5t137 -56.5q99 0 143.5 59t44.5 193v537h373v-529z" />
    <glyph glyph-name="v" unicode="v" horiz-adv-x="1276" 
d="M1262 1053l-480 -1053h-293l-475 1053h410l223 -580l217 580h398z" />
    <glyph glyph-name="w" unicode="w" horiz-adv-x="2040" 
d="M2030 1053l-480 -1053h-282l-236 618l-244 -618h-303l-475 1053h398l256 -621l227 621h270l234 -621l237 621h398z" />
    <glyph glyph-name="x" unicode="x" horiz-adv-x="1458" 
d="M1436 0h-441l-270 340l-270 -340h-432l475 555l-416 498h428l211 -277l213 277h442l-424 -498z" />
    <glyph glyph-name="y" unicode="y" horiz-adv-x="1339" 
d="M1319 1053l-692 -1585h-416l278 585l-469 1000h414l242 -609l244 609h399z" />
    <glyph glyph-name="z" unicode="z" horiz-adv-x="1145" 
d="M1128 1053l-534 -756h487v-297h-1071l504 756h-438v297h1052z" />
    <glyph glyph-name="braceleft" unicode="{" horiz-adv-x="721" 
d="M668 -440q-280 0 -367.5 75.5t-87.5 284.5v377q0 70 -32.5 93.5t-127.5 23.5v276q100 0 130 23.5t30 93.5v377q0 209 87.5 284.5t367.5 75.5v-276q-103 0 -130.5 -15.5t-27.5 -101.5v-336q0 -96 -37 -167.5t-98 -94.5q62 -18 98.5 -90.5t36.5 -173.5v-336
q0 -86 27.5 -101.5t130.5 -15.5v-276z" />
    <glyph glyph-name="bar" unicode="|" horiz-adv-x="1186" 
d="M721 -504h-256v2048h256v-2048z" />
    <glyph glyph-name="braceright" unicode="}" horiz-adv-x="721" 
d="M668 414q-95 0 -127.5 -23.5t-32.5 -93.5v-377q0 -209 -87.5 -284.5t-367.5 -75.5v276q103 0 130.5 15.5t27.5 101.5v336q0 101 36.5 173.5t98.5 90.5q-62 23 -98.5 94.5t-36.5 167.5v336q0 86 -27.5 101.5t-130.5 15.5v276q280 0 367.5 -75.5t87.5 -284.5v-377
q0 -70 30 -93.5t130 -23.5v-276z" />
    <glyph glyph-name="asciitilde" unicode="~" 
d="M1272 547q-73 -93 -152 -135.5t-184 -42.5q-60 0 -124.5 20.5t-109.5 54.5q-73 57 -127 81t-112 24q-88 0 -167.5 -49.5t-162.5 -155.5v285q73 93 152 135.5t184 42.5q60 0 124.5 -21t108.5 -55q74 -56 128 -80t112 -24q88 0 167.5 49.5t162.5 154.5v-284z" />
    <glyph glyph-name="c4606" 
d="M1307 63q-76 -48 -171.5 -72t-215.5 -24q-267 0 -447.5 152.5t-234.5 425.5h-218l52 147l145 1q-1 14 -1.5 30.5t-0.5 50.5q0 15 1 33t3 53h-199l52 148h168q58 264 242 416.5t438 152.5q120 0 222.5 -25t164.5 -71v-402q-81 73 -167 108.5t-179 35.5q-106 0 -186 -56
t-122 -159h549l-51 -148h-532q-3 -31 -4 -50t-1 -36q0 -14 1 -31.5t4 -50.5h481l-51 -147h-400q40 -110 119 -166.5t193 -56.5q99 0 193.5 38t152.5 105v-402z" />
    <glyph glyph-name="c4606" unicode="&#x20ac;" 
d="M1307 63q-76 -48 -171.5 -72t-215.5 -24q-267 0 -447.5 152.5t-234.5 425.5h-218l52 147l145 1q-1 14 -1.5 30.5t-0.5 50.5q0 15 1 33t3 53h-199l52 148h168q58 264 242 416.5t438 152.5q120 0 222.5 -25t164.5 -71v-402q-81 73 -167 108.5t-179 35.5q-106 0 -186 -56
t-122 -159h549l-51 -148h-532q-3 -31 -4 -50t-1 -36q0 -14 1 -31.5t4 -50.5h481l-51 -147h-400q40 -110 119 -166.5t193 -56.5q99 0 193.5 38t152.5 105v-402z" />
    <glyph glyph-name="figspace" unicode="&#xa0;" horiz-adv-x="1411" 
 />
    <glyph glyph-name="figspace" unicode="&#x2007;" horiz-adv-x="1411" 
 />
    <glyph glyph-name="exclamdown" unicode="&#xa1;" horiz-adv-x="786" 
d="M588 0h-389v1038h389v-1038zM604 1364q0 -88 -60 -149.5t-149 -61.5t-151 61t-62 150q0 90 62 151.5t151 61.5t149 -61.5t60 -151.5z" />
    <glyph glyph-name="cent" unicode="&#xa2;" 
d="M958 299q-54 -33 -103.5 -50t-102.5 -22v-227h-164v231q-218 28 -341.5 174.5t-123.5 378.5q0 219 125 371t340 182v207h164v-202q52 -4 106.5 -20.5t99.5 -43.5v-350q-37 43 -92 67.5t-114 24.5q-111 0 -175.5 -64.5t-64.5 -169.5q0 -115 63.5 -176t184.5 -61
q48 0 104 26t94 66v-342z" />
    <glyph glyph-name="sterling" unicode="&#xa3;" 
d="M1323 324q-41 -188 -133.5 -272.5t-308.5 -84.5q-96 0 -221.5 57.5t-174.5 57.5q-43 0 -84.5 -24t-54.5 -58h-305q36 276 324 342q6 2 8 2q26 41 38.5 88t12.5 109q0 23 -8.5 66t-18.5 73h-243v147h168q-62 88 -87.5 164.5t-25.5 161.5q0 184 145 304t381 120
q248 0 382.5 -126.5t139.5 -365.5l-360 1q-2 95 -44.5 144.5t-123.5 49.5q-68 0 -109.5 -41.5t-41.5 -108.5q0 -53 61 -182q37 -76 55 -121h350v-147h-329q-2 -111 -33.5 -194t-91.5 -132q58 -5 148.5 -47.5t156.5 -42.5q43 0 66.5 12t42.5 48h319z" />
    <glyph glyph-name="currency" unicode="&#xa4;" 
d="M975 993q0 111 -80.5 192t-192.5 81q-111 0 -191.5 -81t-80.5 -192q0 -112 79.5 -192t192.5 -80t193 80t80 192zM1290 532l-125 -124l-211 213q-56 -40 -117.5 -59t-134.5 -19q-71 0 -132 18.5t-119 59.5l-213 -213l-123 124l211 213q-39 58 -57.5 119t-18.5 129
q0 69 19 131t57 117l-211 215l123 121l213 -209q55 39 117.5 58.5t131.5 19.5q72 0 135 -19.5t119 -58.5l211 209l125 -121l-211 -215q38 -58 56 -119t18 -129q0 -67 -18.5 -128.5t-55.5 -119.5z" />
    <glyph glyph-name="yen" unicode="&#xa5;" 
d="M1391 1544l-285 -491h268v-148h-352l-121 -209h473v-147h-485v-549h-369v549h-489v147h477l-121 209h-356v148h270l-287 491h408l285 -545l284 545h400z" />
    <glyph glyph-name="brokenbar" unicode="&#xa6;" horiz-adv-x="1186" 
d="M721 -371h-256v758h256v-758zM721 653h-256v758h256v-758z" />
    <glyph glyph-name="section" unicode="&#xa7;" 
d="M889 553q0 82 -53 138.5t-129 56.5q-82 0 -136.5 -53.5t-54.5 -133.5q0 -87 53 -141.5t131 -54.5q80 0 134.5 54.5t54.5 133.5zM1270 569q0 -112 -65.5 -211.5t-160.5 -132.5q83 -40 121.5 -107t38.5 -169q0 -186 -140.5 -299t-375.5 -113q-241 0 -372.5 119.5
t-132.5 337.5h386v-25q0 -75 37.5 -115t108.5 -40q66 0 106.5 38.5t40.5 102.5q0 71 -56 98.5t-237 52.5q-219 31 -326.5 139.5t-107.5 301.5q0 128 59 217.5t168 126.5q-82 39 -120.5 106t-38.5 170q0 186 140 298t376 112q237 0 368.5 -115.5t137.5 -328.5h-387v22
q0 69 -38.5 107t-107.5 38q-66 0 -105.5 -38t-39.5 -103q0 -70 61.5 -99t229.5 -52q226 -32 329 -137t103 -302z" />
    <glyph glyph-name="dieresis" unicode="&#xa8;" horiz-adv-x="1237" 
d="M561 1339q0 -68 -46 -114.5t-114 -46.5q-67 0 -114 47t-47 114q0 64 48.5 112t112.5 48q66 0 113 -47t47 -113zM997 1339q0 -68 -45.5 -114.5t-113.5 -46.5t-115 47t-47 114q0 64 48.5 112t113.5 48q66 0 112.5 -47t46.5 -113z" />
    <glyph glyph-name="copyright" unicode="&#xa9;" horiz-adv-x="1638" 
d="M1174 373q-66 -48 -150.5 -74.5t-169.5 -26.5q-226 0 -361 141t-135 373q0 226 138 368t358 142q90 0 173 -28t147 -80v-273q-72 78 -149.5 117t-162.5 39q-133 0 -200.5 -71t-67.5 -214q0 -137 68 -212.5t190 -75.5q92 0 166 32.5t156 110.5v-268zM1481 772
q0 274 -194 468t-468 194q-273 0 -467 -194t-194 -468q0 -273 194 -467t467 -194q274 0 468 194t194 467zM1624 772q0 -333 -235.5 -569t-569.5 -236q-333 0 -569 236t-236 569t236 569t569 236q334 0 569.5 -236t235.5 -569z" />
    <glyph glyph-name="ordfeminine" unicode="&#xaa;" horiz-adv-x="838" 
d="M539 1227q0 75 -35.5 117t-93.5 42q-61 0 -98.5 -43t-37.5 -116t36.5 -114.5t99.5 -41.5q57 0 93 43t36 113zM758 913h-219v86q-34 -56 -84.5 -81t-128.5 -25q-128 0 -206.5 91.5t-78.5 242.5q0 156 78.5 247t212.5 91q70 0 120.5 -26.5t86.5 -80.5v86h219v-631z" />
    <glyph glyph-name="guillemotleft" unicode="&#xab;" horiz-adv-x="1235" 
d="M643 160l-201 -146l-374 510l374 512l201 -139l-276 -373zM1153 160l-199 -146l-376 510l376 512l199 -139l-274 -373z" />
    <glyph glyph-name="logicalnot" unicode="&#xac;" 
d="M1288 258h-239v410h-973v237h1212v-647z" />
    <glyph glyph-name="sfthyphen" unicode="&#xad;" horiz-adv-x="803" 
d="M737 377h-671v319h671v-319z" />
    <glyph glyph-name="registered" unicode="&#xae;" horiz-adv-x="1638" 
d="M936 991q0 61 -28 86t-103 25h-57v-207h57q70 0 100.5 23t30.5 73zM1227 293h-246l-233 428v-428h-216v983h299q152 0 241 -76.5t89 -200.5q0 -99 -57 -169.5t-150 -86.5zM1481 772q0 274 -194 468t-468 194q-273 0 -467 -194t-194 -468q0 -273 194 -467t467 -194
q274 0 468 194t194 467zM1624 772q0 -333 -235.5 -569t-569.5 -236q-333 0 -569 236t-236 569t236 569t569 236q334 0 569.5 -236t235.5 -569z" />
    <glyph glyph-name="overscore" unicode="&#xaf;" horiz-adv-x="1024" 
d="M0 1565h1024v-240h-1024v240z" />
    <glyph glyph-name="degree" unicode="&#xb0;" horiz-adv-x="819" 
d="M582 1253q0 72 -50.5 122t-121.5 50q-72 0 -123 -50t-51 -122t50.5 -123t123.5 -51q71 0 121.5 51.5t50.5 122.5zM735 1251q0 -134 -96 -229.5t-231 -95.5q-136 0 -230 94.5t-94 230.5q0 137 94.5 231.5t231.5 94.5q135 0 230 -95t95 -231z" />
    <glyph glyph-name="plusminus" unicode="&#xb1;" 
d="M1329 0h-1253v242h1253v-242zM1329 741h-502v-376h-247v376h-504v242h504v375h247v-375h502v-242z" />
    <glyph glyph-name="twosuperior" unicode="&#xb2;" horiz-adv-x="844" 
d="M788 1274q0 -66 -31.5 -127.5t-105.5 -134.5l-184 -183h311v-194h-770l451 487q37 40 55 77.5t18 72.5q0 45 -31.5 76.5t-82.5 31.5q-63 0 -97 -37.5t-34 -107.5v-12h-246v6q0 154 101 245t274 91q177 0 274.5 -77.5t97.5 -213.5z" />
    <glyph glyph-name="threesuperior" unicode="&#xb3;" horiz-adv-x="844" 
d="M803 897q0 -130 -103 -206.5t-276 -76.5q-179 0 -281 81.5t-102 224.5v12h258v-14q0 -61 30 -90t91 -29q65 0 96 27t31 83q0 58 -38 84.5t-138 26.5v164q87 0 119 23.5t32 76.5q0 43 -28.5 68.5t-75.5 25.5q-54 0 -83.5 -25t-29.5 -71h-243q3 131 101 206t269 75
q152 0 244 -70t92 -182q0 -68 -43.5 -117.5t-122.5 -71.5q95 -13 148 -72.5t53 -152.5z" />
    <glyph glyph-name="acute" unicode="&#xb4;" horiz-adv-x="823" 
d="M725 1376l-391 -198l-92 141l350 258z" />
    <glyph glyph-name="glyph120" unicode="&#xb5;" horiz-adv-x="1350" 
d="M1272 272l-49 -297q-3 0 -8 -1q-37 -7 -50 -7q-136 0 -221 52.5t-106 152.5q-45 -114 -110 -159.5t-179 -45.5q-56 0 -97.5 47t-50.5 115l-104 -661h-369l250 1585h375l-70 -465q-7 -52 -10.5 -89t-3.5 -63q0 -87 33 -131.5t98 -44.5q77 0 125 71.5t76 229.5l86 492h366
l-86 -531q-2 -14 -7 -41q-17 -104 -17 -133q0 -45 15 -66.5t48 -21.5q20 0 35 3t31 9z" />
    <glyph glyph-name="paragraph" unicode="&#xb6;" 
d="M1208 1415h-110v-1415h-174v1415h-174v-1415h-175v819q-171 6 -274.5 105t-103.5 256q0 165 110 264.5t295 99.5h606v-129z" />
    <glyph glyph-name="periodcentered" unicode="&#xb7;" horiz-adv-x="702" 
d="M563 756q0 -90 -61.5 -151.5t-151.5 -61.5q-88 0 -149.5 61.5t-61.5 151.5q0 87 61 148t150 61q90 0 151.5 -60.5t61.5 -148.5z" />
    <glyph glyph-name="cedilla" unicode="&#xb8;" horiz-adv-x="778" 
d="M614 -199l-323 -354l-137 109l256 397z" />
    <glyph glyph-name="onesuperior" unicode="&#xb9;" horiz-adv-x="844" 
d="M590 635h-256v674h-211l117 235h350v-909z" />
    <glyph glyph-name="ordmasculine" unicode="&#xba;" horiz-adv-x="840" 
d="M551 1229q0 59 -37.5 100t-93.5 41q-59 0 -95 -41t-36 -100q0 -65 35.5 -103.5t95.5 -38.5q58 0 94.5 38.5t36.5 103.5zM784 1229q0 -144 -103 -240t-261 -96q-159 0 -262 95.5t-103 240.5q0 142 105 239t260 97q158 0 261 -94.5t103 -241.5z" />
    <glyph glyph-name="guillemotright" unicode="&#xbb;" horiz-adv-x="1235" 
d="M655 524l-374 -510l-199 146l274 364l-274 373l199 139zM1167 524l-376 -510l-199 146l274 364l-274 373l199 139z" />
    <glyph glyph-name="onequarter" unicode="&#xbc;" horiz-adv-x="2107" 
d="M1669 387v346l-252 -346h252zM590 635h-256v674h-211l117 235h350v-909zM1575 1577l-926 -1610h-196l925 1610h197zM2019 203h-114v-203h-236v203h-467v184l381 522h322v-522h114v-184z" />
    <glyph glyph-name="onehalf" unicode="&#xbd;" horiz-adv-x="2107" 
d="M590 635h-256v674h-211l117 235h350v-909zM1575 1577l-926 -1610h-196l925 1610h197zM1995 639q0 -66 -32 -127.5t-105 -134.5l-185 -182h312v-195h-771l451 487q37 40 55.5 77.5t18.5 72.5q0 46 -31.5 77t-83.5 31q-63 0 -97 -37.5t-34 -107.5v-12h-246v6
q0 155 101 245.5t274 90.5q178 0 275.5 -77.5t97.5 -213.5z" />
    <glyph glyph-name="threequarters" unicode="&#xbe;" horiz-adv-x="2107" 
d="M1669 387v346l-252 -346h252zM803 897q0 -130 -103 -206.5t-276 -76.5q-179 0 -281 81.5t-102 224.5v12h258v-14q0 -61 30 -90t91 -29q65 0 96 27t31 83q0 58 -38 84.5t-138 26.5v164q87 0 119 23.5t32 76.5q0 43 -28.5 68.5t-75.5 25.5q-54 0 -83.5 -25t-29.5 -71h-243
q3 131 101 206t269 75q152 0 244 -70t92 -182q0 -68 -43.5 -117.5t-122.5 -71.5q95 -13 148 -72.5t53 -152.5zM1616 1577l-926 -1610h-196l925 1610h197zM2019 203h-114v-203h-236v203h-467v184l381 522h322v-522h114v-184z" />
    <glyph glyph-name="questiondown" unicode="&#xbf;" horiz-adv-x="1219" 
d="M1128 420q0 -211 -146 -332t-388 -121q-223 0 -363.5 131t-140.5 338q0 174 93.5 284t244.5 114v204h360v-413h-110q-111 0 -163 -45t-52 -142q0 -75 41 -123.5t106 -48.5q75 0 117.5 40.5t42.5 113.5h358zM821 1366q0 -87 -62 -149t-151 -62q-88 0 -148.5 61t-60.5 150
q0 90 60 150.5t149 60.5q90 0 151.5 -61t61.5 -150z" />
    <glyph glyph-name="Agrave" unicode="&#xc0;" horiz-adv-x="1599" 
d="M1008 571l-205 656l-207 -656h412zM1610 0h-430l-84 274h-590l-86 -274h-430l549 1544h522zM971 1811l-93 -141l-391 198l133 201z" />
    <glyph glyph-name="Aacute" unicode="&#xc1;" horiz-adv-x="1599" 
d="M1008 571l-205 656l-207 -656h412zM1610 0h-430l-84 274h-590l-86 -274h-430l549 1544h522zM1114 1868l-391 -198l-92 141l350 258z" />
    <glyph glyph-name="Acircumflex" unicode="&#xc2;" horiz-adv-x="1599" 
d="M1008 571l-205 656l-207 -656h412zM1610 0h-430l-84 274h-590l-86 -274h-430l549 1544h522zM1153 1817l-94 -147l-258 141l-258 -141l-94 147l352 277z" />
    <glyph glyph-name="Atilde" unicode="&#xc3;" horiz-adv-x="1599" 
d="M1008 571l-205 656l-207 -656h412zM1610 0h-430l-84 274h-590l-86 -274h-430l549 1544h522zM1166 1897q-36 -109 -99 -168t-143 -59q-65 0 -149 52t-103 52q-23 0 -42.5 -23.5t-47.5 -78.5l-147 90q38 110 99 167.5t140 57.5q64 0 151 -52t103 -52q26 0 43 20t47 82z" />
    <glyph glyph-name="Adieresis" unicode="&#xc4;" horiz-adv-x="1599" 
d="M1008 571l-205 656l-207 -656h412zM1610 0h-430l-84 274h-590l-86 -274h-430l549 1544h522zM743 1831q0 -68 -46 -114.5t-114 -46.5q-67 0 -114 47t-47 114q0 64 48.5 112t112.5 48q66 0 113 -47t47 -113zM1179 1831q0 -68 -45.5 -114.5t-113.5 -46.5t-115 47t-47 114
q0 64 48.5 112t113.5 48q66 0 112.5 -47t46.5 -113z" />
    <glyph glyph-name="Aring" unicode="&#xc5;" horiz-adv-x="1599" 
d="M1008 571l-205 656l-207 -656h412zM1610 0h-430l-84 274h-590l-86 -274h-430l549 1544h522zM916 1883q0 43 -31 67.5t-84 24.5q-50 0 -82.5 -26t-32.5 -66q0 -43 30.5 -67t84.5 -24t84.5 24t30.5 67zM1086 1883q0 -106 -81.5 -174t-203.5 -68q-123 0 -204 67.5t-81 174.5
q0 105 82 174t203 69q120 0 202.5 -69.5t82.5 -173.5z" />
    <glyph glyph-name="AE" unicode="&#xc6;" horiz-adv-x="2101" 
d="M1010 571l-207 693l-209 -693h416zM2091 0h-915l-78 274h-594l-80 -274h-414l529 1544h1042l113 -340h-514l84 -258h493l109 -328h-494l92 -278h514z" />
    <glyph glyph-name="Ccedilla" unicode="&#xc7;" horiz-adv-x="1352" 
d="M1270 63q-74 -47 -178.5 -71.5t-231.5 -24.5q-340 0 -564 228t-224 575t224.5 577t563.5 230q130 0 233 -24t177 -72v-457q-70 78 -166.5 121t-200.5 43q-185 0 -299.5 -117.5t-114.5 -308.5q0 -178 116 -292t298 -114q101 0 199.5 43.5t167.5 120.5v-457zM1075 -199
l-323 -354l-137 109l256 397z" />
    <glyph glyph-name="Egrave" unicode="&#xc8;" horiz-adv-x="1126" 
d="M1026 0h-883v1544h883v-340h-481v-258h461v-328h-461v-278h481v-340zM744 1811l-93 -141l-391 198l133 201z" />
    <glyph glyph-name="Eacute" unicode="&#xc9;" horiz-adv-x="1126" 
d="M1026 0h-883v1544h883v-340h-481v-258h461v-328h-461v-278h481v-340zM887 1868l-391 -198l-92 141l350 258z" />
    <glyph glyph-name="Ecircumflex" unicode="&#xca;" horiz-adv-x="1126" 
d="M1026 0h-883v1544h883v-340h-481v-258h461v-328h-461v-278h481v-340zM925 1817l-94 -147l-258 141l-258 -141l-94 147l352 277z" />
    <glyph glyph-name="Edieresis" unicode="&#xcb;" horiz-adv-x="1126" 
d="M1026 0h-883v1544h883v-340h-481v-258h461v-328h-461v-278h481v-340zM516 1831q0 -68 -46 -114.5t-114 -46.5q-67 0 -114 47t-47 114q0 64 48.5 112t112.5 48q66 0 113 -47t47 -113zM952 1831q0 -68 -45.5 -114.5t-113.5 -46.5t-115 47t-47 114q0 64 48.5 112t113.5 48
q66 0 112.5 -47t46.5 -113z" />
    <glyph glyph-name="Igrave" unicode="&#xcc;" horiz-adv-x="664" 
d="M532 0h-401v1544h401v-1544zM502 1811l-93 -141l-391 198l133 201z" />
    <glyph glyph-name="Iacute" unicode="&#xcd;" horiz-adv-x="664" 
d="M532 0h-401v1544h401v-1544zM645 1868l-391 -198l-92 141l350 258z" />
    <glyph glyph-name="Icircumflex" unicode="&#xce;" horiz-adv-x="664" 
d="M532 0h-401v1544h401v-1544zM684 1817l-94 -147l-258 141l-258 -141l-94 147l352 277z" />
    <glyph glyph-name="Idieresis" unicode="&#xcf;" horiz-adv-x="664" 
d="M532 0h-401v1544h401v-1544zM274 1831q0 -68 -46 -114.5t-114 -46.5q-67 0 -114 47t-47 114q0 64 48.5 112t112.5 48q66 0 113 -47t47 -113zM710 1831q0 -68 -45.5 -114.5t-113.5 -46.5t-115 47t-47 114q0 64 48.5 112t113.5 48q66 0 112.5 -47t46.5 -113z" />
    <glyph glyph-name="Eth" unicode="&#xd0;" horiz-adv-x="1540" 
d="M1051 770q0 223 -114.5 328.5t-356.5 105.5h-35v-295h235v-262h-235v-307h35q243 0 357 104.5t114 325.5zM1468 770q0 -390 -227 -580t-704 -190h-394v647h-143v262h143v635h334q529 0 760 -188t231 -586z" />
    <glyph glyph-name="Ntilde" unicode="&#xd1;" horiz-adv-x="1804" 
d="M1661 0h-401l-715 958v-958h-402v1544h404l713 -960v960h401v-1544zM1268 1897q-36 -109 -99 -168t-143 -59q-65 0 -149 52t-103 52q-23 0 -42.5 -23.5t-47.5 -78.5l-147 90q38 110 99 167.5t140 57.5q64 0 151 -52t103 -52q26 0 43 20t47 82z" />
    <glyph glyph-name="Ograve" unicode="&#xd2;" horiz-adv-x="1817" 
d="M1327 770q0 178 -118.5 298t-299.5 120q-185 0 -302.5 -118.5t-117.5 -299.5q0 -178 118.5 -296t301.5 -118q182 0 300 118.5t118 295.5zM1745 770q0 -341 -240.5 -572t-595.5 -231q-356 0 -596.5 231t-240.5 572q0 340 241.5 573.5t595.5 233.5q355 0 595.5 -233
t240.5 -574zM1080 1811l-93 -141l-391 198l133 201z" />
    <glyph glyph-name="Oacute" unicode="&#xd3;" horiz-adv-x="1817" 
d="M1327 770q0 178 -118.5 298t-299.5 120q-185 0 -302.5 -118.5t-117.5 -299.5q0 -178 118.5 -296t301.5 -118q182 0 300 118.5t118 295.5zM1745 770q0 -341 -240.5 -572t-595.5 -231q-356 0 -596.5 231t-240.5 572q0 340 241.5 573.5t595.5 233.5q355 0 595.5 -233
t240.5 -574zM1223 1868l-391 -198l-92 141l350 258z" />
    <glyph glyph-name="Ocircumflex" unicode="&#xd4;" horiz-adv-x="1817" 
d="M1327 770q0 178 -118.5 298t-299.5 120q-185 0 -302.5 -118.5t-117.5 -299.5q0 -178 118.5 -296t301.5 -118q182 0 300 118.5t118 295.5zM1745 770q0 -341 -240.5 -572t-595.5 -231q-356 0 -596.5 231t-240.5 572q0 340 241.5 573.5t595.5 233.5q355 0 595.5 -233
t240.5 -574zM1261 1817l-94 -147l-258 141l-258 -141l-94 147l352 277z" />
    <glyph glyph-name="Otilde" unicode="&#xd5;" horiz-adv-x="1817" 
d="M1327 770q0 178 -118.5 298t-299.5 120q-185 0 -302.5 -118.5t-117.5 -299.5q0 -178 118.5 -296t301.5 -118q182 0 300 118.5t118 295.5zM1745 770q0 -341 -240.5 -572t-595.5 -231q-356 0 -596.5 231t-240.5 572q0 340 241.5 573.5t595.5 233.5q355 0 595.5 -233
t240.5 -574zM1274 1897q-36 -109 -99 -168t-143 -59q-65 0 -149 52t-103 52q-23 0 -42.5 -23.5t-47.5 -78.5l-147 90q38 110 99 167.5t140 57.5q64 0 151 -52t103 -52q26 0 43 20t47 82z" />
    <glyph glyph-name="Odieresis" unicode="&#xd6;" horiz-adv-x="1817" 
d="M1327 770q0 178 -118.5 298t-299.5 120q-185 0 -302.5 -118.5t-117.5 -299.5q0 -178 118.5 -296t301.5 -118q182 0 300 118.5t118 295.5zM1745 770q0 -341 -240.5 -572t-595.5 -231q-356 0 -596.5 231t-240.5 572q0 340 241.5 573.5t595.5 233.5q355 0 595.5 -233
t240.5 -574zM852 1831q0 -68 -46 -114.5t-114 -46.5q-67 0 -114 47t-47 114q0 64 48.5 112t112.5 48q66 0 113 -47t47 -113zM1288 1831q0 -68 -45.5 -114.5t-113.5 -46.5t-115 47t-47 114q0 64 48.5 112t113.5 48q66 0 112.5 -47t46.5 -113z" />
    <glyph glyph-name="multiply" unicode="&#xd7;" 
d="M1333 178l-170 -170l-461 461l-460 -461l-170 170l460 461l-460 463l170 168l460 -461l461 461l170 -168l-461 -463z" />
    <glyph glyph-name="Oslash" unicode="&#xd8;" horiz-adv-x="1817" 
d="M1149 1118q-50 35 -111 52.5t-129 17.5q-185 0 -302.5 -118.5t-117.5 -299.5q0 -69 19.5 -132t56.5 -114zM1327 770q0 70 -20 134t-58 116l-583 -592q53 -35 114.5 -53.5t128.5 -18.5q182 0 300 118.5t118 295.5zM1745 770q0 -341 -240.5 -572t-595.5 -231
q-148 0 -283.5 44.5t-244.5 127.5l-168 -172l-96 99l164 165q-102 110 -155.5 248.5t-53.5 290.5q0 340 241.5 573.5t595.5 233.5q146 0 279 -43.5t244 -126.5l167 170l101 -98l-164 -166q101 -111 155 -251t54 -292z" />
    <glyph glyph-name="Ugrave" unicode="&#xd9;" horiz-adv-x="1593" 
d="M1460 713q0 -430 -148.5 -588t-514.5 -158q-367 0 -515.5 158t-148.5 588v831h402v-835q0 -228 57 -307.5t205 -79.5q147 0 204.5 79.5t57.5 307.5v835h401v-831zM967 1811l-93 -141l-391 198l133 201z" />
    <glyph glyph-name="Uacute" unicode="&#xda;" horiz-adv-x="1593" 
d="M1460 713q0 -430 -148.5 -588t-514.5 -158q-367 0 -515.5 158t-148.5 588v831h402v-835q0 -228 57 -307.5t205 -79.5q147 0 204.5 79.5t57.5 307.5v835h401v-831zM1110 1868l-391 -198l-92 141l350 258z" />
    <glyph glyph-name="Ucircumflex" unicode="&#xdb;" horiz-adv-x="1593" 
d="M1460 713q0 -430 -148.5 -588t-514.5 -158q-367 0 -515.5 158t-148.5 588v831h402v-835q0 -228 57 -307.5t205 -79.5q147 0 204.5 79.5t57.5 307.5v835h401v-831zM1149 1817l-94 -147l-258 141l-258 -141l-94 147l352 277z" />
    <glyph glyph-name="Udieresis" unicode="&#xdc;" horiz-adv-x="1593" 
d="M1460 713q0 -430 -148.5 -588t-514.5 -158q-367 0 -515.5 158t-148.5 588v831h402v-835q0 -228 57 -307.5t205 -79.5q147 0 204.5 79.5t57.5 307.5v835h401v-831zM739 1831q0 -68 -46 -114.5t-114 -46.5q-67 0 -114 47t-47 114q0 64 48.5 112t112.5 48q66 0 113 -47
t47 -113zM1175 1831q0 -68 -45.5 -114.5t-113.5 -46.5t-115 47t-47 114q0 64 48.5 112t113.5 48q66 0 112.5 -47t46.5 -113z" />
    <glyph glyph-name="Yacute" unicode="&#xdd;" horiz-adv-x="1462" 
d="M1468 1544l-538 -846v-698h-398v698l-538 846h479l258 -508l258 508h479zM1044 1868l-391 -198l-92 141l350 258z" />
    <glyph glyph-name="Thorn" unicode="&#xde;" horiz-adv-x="1354" 
d="M864 778q0 101 -61.5 147t-202.5 46h-55v-383h51q146 0 207 44t61 146zM1282 772q0 -254 -170 -383t-502 -129h-65v-260h-402v1544h402v-246h47q357 0 523.5 -129t166.5 -397z" />
    <glyph glyph-name="germandbls" unicode="&#xdf;" horiz-adv-x="1333" 
d="M1262 494q0 -250 -149.5 -388.5t-420.5 -138.5q-26 0 -51 2t-47 6v293q10 -2 20 -3t23 -1q114 0 174.5 60t60.5 174q0 123 -67 190.5t-193 67.5h-18v297h14q115 0 169 49t54 155q0 70 -41.5 114t-107.5 44q-89 0 -127.5 -59t-38.5 -197v-1159h-373v756h-92v297h92v98
q0 295 121.5 430t388.5 135q245 0 380.5 -120t135.5 -328q0 -136 -69 -231t-191 -122q159 -16 256 -130.5t97 -290.5z" />
    <glyph glyph-name="agrave" unicode="&#xe0;" horiz-adv-x="1397" 
d="M901 524q0 125 -58 194.5t-157 69.5q-101 0 -163 -71t-62 -193q0 -120 60.5 -190t164.5 -70q97 0 156 71.5t59 188.5zM1268 0h-367v143q-56 -93 -140.5 -134.5t-215.5 -41.5q-212 0 -342.5 153t-130.5 404q0 260 131 410.5t354 150.5q117 0 200.5 -43t143.5 -133v144h367
v-1053zM838 1319l-93 -141l-391 198l133 201z" />
    <glyph glyph-name="aacute" unicode="&#xe1;" horiz-adv-x="1397" 
d="M901 524q0 125 -58 194.5t-157 69.5q-101 0 -163 -71t-62 -193q0 -120 60.5 -190t164.5 -70q97 0 156 71.5t59 188.5zM1268 0h-367v143q-56 -93 -140.5 -134.5t-215.5 -41.5q-212 0 -342.5 153t-130.5 404q0 260 131 410.5t354 150.5q117 0 200.5 -43t143.5 -133v144h367
v-1053zM981 1376l-391 -198l-92 141l350 258z" />
    <glyph glyph-name="acircumflex" unicode="&#xe2;" horiz-adv-x="1397" 
d="M901 524q0 125 -58 194.5t-157 69.5q-101 0 -163 -71t-62 -193q0 -120 60.5 -190t164.5 -70q97 0 156 71.5t59 188.5zM1268 0h-367v143q-56 -93 -140.5 -134.5t-215.5 -41.5q-212 0 -342.5 153t-130.5 404q0 260 131 410.5t354 150.5q117 0 200.5 -43t143.5 -133v144h367
v-1053zM1019 1325l-94 -147l-258 141l-258 -141l-94 147l352 277z" />
    <glyph glyph-name="atilde" unicode="&#xe3;" horiz-adv-x="1397" 
d="M901 524q0 125 -58 194.5t-157 69.5q-101 0 -163 -71t-62 -193q0 -120 60.5 -190t164.5 -70q97 0 156 71.5t59 188.5zM1268 0h-367v143q-56 -93 -140.5 -134.5t-215.5 -41.5q-212 0 -342.5 153t-130.5 404q0 260 131 410.5t354 150.5q117 0 200.5 -43t143.5 -133v144h367
v-1053zM1034 1405q-36 -109 -99 -168t-143 -59q-65 0 -149 52t-103 52q-23 0 -42.5 -23.5t-47.5 -78.5l-147 90q38 110 99 167.5t140 57.5q64 0 151 -52t103 -52q26 0 43 20t47 82z" />
    <glyph glyph-name="adieresis" unicode="&#xe4;" horiz-adv-x="1397" 
d="M901 524q0 125 -58 194.5t-157 69.5q-101 0 -163 -71t-62 -193q0 -120 60.5 -190t164.5 -70q97 0 156 71.5t59 188.5zM1268 0h-367v143q-56 -93 -140.5 -134.5t-215.5 -41.5q-212 0 -342.5 153t-130.5 404q0 260 131 410.5t354 150.5q117 0 200.5 -43t143.5 -133v144h367
v-1053zM610 1339q0 -68 -46 -114.5t-114 -46.5q-67 0 -114 47t-47 114q0 64 48.5 112t112.5 48q66 0 113 -47t47 -113zM1046 1339q0 -68 -45.5 -114.5t-113.5 -46.5t-115 47t-47 114q0 64 48.5 112t113.5 48q66 0 112.5 -47t46.5 -113z" />
    <glyph glyph-name="aring" unicode="&#xe5;" horiz-adv-x="1397" 
d="M901 524q0 125 -58 194.5t-157 69.5q-101 0 -163 -71t-62 -193q0 -120 60.5 -190t164.5 -70q97 0 156 71.5t59 188.5zM1268 0h-367v143q-56 -93 -140.5 -134.5t-215.5 -41.5q-212 0 -342.5 153t-130.5 404q0 260 131 410.5t354 150.5q117 0 200.5 -43t143.5 -133v144h367
v-1053zM785 1391q0 43 -31 67.5t-84 24.5q-50 0 -82.5 -26t-32.5 -66q0 -43 30.5 -67t84.5 -24t84.5 24t30.5 67zM955 1391q0 -106 -81.5 -174t-203.5 -68q-123 0 -204 67.5t-81 174.5q0 105 82 174t203 69q120 0 202.5 -69.5t82.5 -173.5z" />
    <glyph glyph-name="ae" unicode="&#xe6;" horiz-adv-x="1925" 
d="M760 324q0 64 -41.5 99.5t-118.5 35.5q-74 0 -122 -38.5t-48 -96.5t42.5 -97t113.5 -39q84 0 129 35.5t45 100.5zM1495 660q-10 93 -63 146.5t-136 53.5q-82 0 -135 -57.5t-55 -142.5h389zM1853 455h-747q0 -108 58 -170t155 -62q60 0 117.5 32.5t83.5 86.5l280 -113
q-76 -142 -190 -202t-297 -60q-134 0 -236.5 40.5t-169.5 119.5q-60 -77 -167.5 -118.5t-245.5 -41.5q-204 0 -319.5 93.5t-115.5 256.5q0 162 111.5 262.5t288.5 100.5q88 0 162 -20t139 -62v29q0 100 -64.5 148t-197.5 48q-100 0 -197 -21.5t-162 -58.5v275
q74 32 179.5 49.5t216.5 17.5q142 0 238.5 -36t154.5 -111q67 73 160 110t210 37q259 0 407 -163t148 -451v-16z" />
    <glyph glyph-name="ccedilla" unicode="&#xe7;" horiz-adv-x="989" 
d="M907 41q-65 -39 -128 -56.5t-142 -17.5q-261 0 -413 150.5t-152 408.5q0 248 154 403.5t415 155.5q77 0 144.5 -16.5t121.5 -48.5v-350q-37 43 -92.5 67.5t-114.5 24.5q-110 0 -174.5 -64.5t-64.5 -169.5q0 -115 63.5 -176t184.5 -61q48 0 103.5 25.5t94.5 66.5v-342z
M829 -199l-323 -354l-137 109l256 397z" />
    <glyph glyph-name="egrave" unicode="&#xe8;" horiz-adv-x="1249" 
d="M819 660q-10 93 -63 146.5t-135 53.5q-83 0 -136 -57.5t-55 -142.5h389zM1178 455h-748q0 -108 58.5 -170t154.5 -62q60 0 117.5 32.5t83.5 86.5l280 -113q-76 -142 -190 -202t-297 -60q-270 0 -417.5 145t-147.5 404q0 254 150 411.5t401 157.5q259 0 407 -163t148 -451
v-16zM795 1319l-93 -141l-391 198l133 201z" />
    <glyph glyph-name="eacute" unicode="&#xe9;" horiz-adv-x="1249" 
d="M819 660q-10 93 -63 146.5t-135 53.5q-83 0 -136 -57.5t-55 -142.5h389zM1178 455h-748q0 -108 58.5 -170t154.5 -62q60 0 117.5 32.5t83.5 86.5l280 -113q-76 -142 -190 -202t-297 -60q-270 0 -417.5 145t-147.5 404q0 254 150 411.5t401 157.5q259 0 407 -163t148 -451
v-16zM938 1376l-391 -198l-92 141l350 258z" />
    <glyph glyph-name="ecircumflex" unicode="&#xea;" horiz-adv-x="1249" 
d="M819 660q-10 93 -63 146.5t-135 53.5q-83 0 -136 -57.5t-55 -142.5h389zM1178 455h-748q0 -108 58.5 -170t154.5 -62q60 0 117.5 32.5t83.5 86.5l280 -113q-76 -142 -190 -202t-297 -60q-270 0 -417.5 145t-147.5 404q0 254 150 411.5t401 157.5q259 0 407 -163t148 -451
v-16zM976 1325l-94 -147l-258 141l-258 -141l-94 147l352 277z" />
    <glyph glyph-name="edieresis" unicode="&#xeb;" horiz-adv-x="1249" 
d="M819 660q-10 93 -63 146.5t-135 53.5q-83 0 -136 -57.5t-55 -142.5h389zM1178 455h-748q0 -108 58.5 -170t154.5 -62q60 0 117.5 32.5t83.5 86.5l280 -113q-76 -142 -190 -202t-297 -60q-270 0 -417.5 145t-147.5 404q0 254 150 411.5t401 157.5q259 0 407 -163t148 -451
v-16zM567 1339q0 -68 -46 -114.5t-114 -46.5q-67 0 -114 47t-47 114q0 64 48.5 112t112.5 48q66 0 113 -47t47 -113zM1003 1339q0 -68 -45.5 -114.5t-113.5 -46.5t-115 47t-47 114q0 64 48.5 112t113.5 48q66 0 112.5 -47t46.5 -113z" />
    <glyph glyph-name="igrave" unicode="&#xec;" horiz-adv-x="618" 
d="M496 0h-373v1053h373v-1053zM480 1319l-93 -141l-391 198l133 201z" />
    <glyph glyph-name="iacute" unicode="&#xed;" horiz-adv-x="618" 
d="M496 0h-373v1053h373v-1053zM623 1376l-391 -198l-92 141l350 258z" />
    <glyph glyph-name="icircumflex" unicode="&#xee;" horiz-adv-x="618" 
d="M496 0h-373v1053h373v-1053zM661 1325l-94 -147l-258 141l-258 -141l-94 147l352 277z" />
    <glyph glyph-name="idieresis" unicode="&#xef;" horiz-adv-x="618" 
d="M496 0h-373v1053h373v-1053zM252 1339q0 -68 -46 -114.5t-114 -46.5q-67 0 -114 47t-47 114q0 64 48.5 112t112.5 48q66 0 113 -47t47 -113zM688 1339q0 -68 -45.5 -114.5t-113.5 -46.5t-115 47t-47 114q0 64 48.5 112t113.5 48q66 0 112.5 -47t46.5 -113z" />
    <glyph glyph-name="eth" unicode="&#xf0;" horiz-adv-x="1356" 
d="M895 526q0 100 -62 168t-155 68q-98 0 -157.5 -68t-59.5 -168q0 -107 58.5 -171t158.5 -64q96 0 156.5 64t60.5 171zM1284 588q0 -273 -171.5 -447t-434.5 -174q-266 0 -436 159t-170 400q0 240 165.5 399.5t419.5 159.5q27 0 54.5 -2.5t58.5 -7.5q-43 68 -82.5 118
t-79.5 85l-311 -143l-72 149l246 109q-66 38 -99.5 56t-62.5 32l135 235q75 -32 152.5 -75t179.5 -111l332 153l72 -153l-258 -123q173 -167 267.5 -381t94.5 -438z" />
    <glyph glyph-name="ntilde" unicode="&#xf1;" horiz-adv-x="1354" 
d="M1235 0h-373v547q0 134 -36 187.5t-124 53.5q-102 0 -151 -88.5t-49 -273.5v-426h-373v1053h373v-176q71 115 151 161.5t205 46.5q202 0 289.5 -114t87.5 -371v-600zM1043 1405q-36 -109 -99 -168t-143 -59q-65 0 -149 52t-103 52q-23 0 -42.5 -23.5t-47.5 -78.5l-147 90
q38 110 99 167.5t140 57.5q64 0 151 -52t103 -52q26 0 43 20t47 82z" />
    <glyph glyph-name="ograve" unicode="&#xf2;" horiz-adv-x="1356" 
d="M895 526q0 100 -62 168t-155 68q-98 0 -157.5 -68t-59.5 -168q0 -107 58.5 -171t158.5 -64q96 0 156.5 64t60.5 171zM1284 526q0 -240 -171.5 -399.5t-434.5 -159.5q-266 0 -436 159t-170 400q0 237 174 398t432 161q264 0 435 -156.5t171 -402.5zM848 1319l-93 -141
l-391 198l133 201z" />
    <glyph glyph-name="oacute" unicode="&#xf3;" horiz-adv-x="1356" 
d="M895 526q0 100 -62 168t-155 68q-98 0 -157.5 -68t-59.5 -168q0 -107 58.5 -171t158.5 -64q96 0 156.5 64t60.5 171zM1284 526q0 -240 -171.5 -399.5t-434.5 -159.5q-266 0 -436 159t-170 400q0 237 174 398t432 161q264 0 435 -156.5t171 -402.5zM991 1376l-391 -198
l-92 141l350 258z" />
    <glyph glyph-name="ocircumflex" unicode="&#xf4;" horiz-adv-x="1356" 
d="M895 526q0 100 -62 168t-155 68q-98 0 -157.5 -68t-59.5 -168q0 -107 58.5 -171t158.5 -64q96 0 156.5 64t60.5 171zM1284 526q0 -240 -171.5 -399.5t-434.5 -159.5q-266 0 -436 159t-170 400q0 237 174 398t432 161q264 0 435 -156.5t171 -402.5zM1030 1325l-94 -147
l-258 141l-258 -141l-94 147l352 277z" />
    <glyph glyph-name="otilde" unicode="&#xf5;" horiz-adv-x="1356" 
d="M895 526q0 100 -62 168t-155 68q-98 0 -157.5 -68t-59.5 -168q0 -107 58.5 -171t158.5 -64q96 0 156.5 64t60.5 171zM1284 526q0 -240 -171.5 -399.5t-434.5 -159.5q-266 0 -436 159t-170 400q0 237 174 398t432 161q264 0 435 -156.5t171 -402.5zM1045 1405
q-36 -109 -99 -168t-143 -59q-65 0 -149 52t-103 52q-23 0 -42.5 -23.5t-47.5 -78.5l-147 90q38 110 99 167.5t140 57.5q64 0 151 -52t103 -52q26 0 43 20t47 82z" />
    <glyph glyph-name="odieresis" unicode="&#xf6;" horiz-adv-x="1356" 
d="M895 526q0 100 -62 168t-155 68q-98 0 -157.5 -68t-59.5 -168q0 -107 58.5 -171t158.5 -64q96 0 156.5 64t60.5 171zM1284 526q0 -240 -171.5 -399.5t-434.5 -159.5q-266 0 -436 159t-170 400q0 237 174 398t432 161q264 0 435 -156.5t171 -402.5zM620 1339
q0 -68 -46 -114.5t-114 -46.5q-67 0 -114 47t-47 114q0 64 48.5 112t112.5 48q66 0 113 -47t47 -113zM1056 1339q0 -68 -45.5 -114.5t-113.5 -46.5t-115 47t-47 114q0 64 48.5 112t113.5 48q66 0 112.5 -47t46.5 -113z" />
    <glyph glyph-name="divide" unicode="&#xf7;" 
d="M874 215q0 -71 -49 -121.5t-120 -50.5q-72 0 -123.5 50.5t-51.5 121.5t51.5 121.5t123.5 50.5q70 0 119.5 -50t49.5 -122zM1329 518h-1253v242h1253v-242zM874 1063q0 -71 -50.5 -121.5t-123.5 -50.5q-71 0 -120.5 50t-49.5 122q0 71 51.5 122.5t123.5 51.5
q69 0 119 -51.5t50 -122.5z" />
    <glyph glyph-name="oslash" unicode="&#xf8;" horiz-adv-x="1356" 
d="M903 526q0 31 -7 61.5t-19 57.5l-322 -332q28 -16 58.5 -24t64.5 -8q100 0 162.5 66.5t62.5 178.5zM797 737q-25 17 -55.5 26t-63.5 9q-102 0 -163.5 -71t-61.5 -175q0 -31 5.5 -61.5t16.5 -56.5zM1284 526q0 -240 -171.5 -399.5t-434.5 -159.5q-102 0 -194 25.5
t-169 75.5l-125 -127l-88 88l117 118q-71 75 -109 173t-38 206q0 237 174 398t432 161q103 0 194.5 -25t167.5 -75l123 125l90 -80l-118 -123q73 -74 111 -171.5t38 -209.5z" />
    <glyph glyph-name="ugrave" unicode="&#xf9;" horiz-adv-x="1350" 
d="M1231 524q0 -289 -133.5 -423t-421.5 -134q-289 0 -423 133.5t-134 423.5v529h373v-537q0 -139 41 -195.5t137 -56.5q99 0 143.5 59t44.5 193v537h373v-529zM846 1319l-93 -141l-391 198l133 201z" />
    <glyph glyph-name="uacute" unicode="&#xfa;" horiz-adv-x="1350" 
d="M1231 524q0 -289 -133.5 -423t-421.5 -134q-289 0 -423 133.5t-134 423.5v529h373v-537q0 -139 41 -195.5t137 -56.5q99 0 143.5 59t44.5 193v537h373v-529zM989 1376l-391 -198l-92 141l350 258z" />
    <glyph glyph-name="ucircumflex" unicode="&#xfb;" horiz-adv-x="1350" 
d="M1231 524q0 -289 -133.5 -423t-421.5 -134q-289 0 -423 133.5t-134 423.5v529h373v-537q0 -139 41 -195.5t137 -56.5q99 0 143.5 59t44.5 193v537h373v-529zM1028 1325l-94 -147l-258 141l-258 -141l-94 147l352 277z" />
    <glyph glyph-name="udieresis" unicode="&#xfc;" horiz-adv-x="1350" 
d="M1231 524q0 -289 -133.5 -423t-421.5 -134q-289 0 -423 133.5t-134 423.5v529h373v-537q0 -139 41 -195.5t137 -56.5q99 0 143.5 59t44.5 193v537h373v-529zM618 1339q0 -68 -46 -114.5t-114 -46.5q-67 0 -114 47t-47 114q0 64 48.5 112t112.5 48q66 0 113 -47t47 -113z
M1054 1339q0 -68 -45.5 -114.5t-113.5 -46.5t-115 47t-47 114q0 64 48.5 112t113.5 48q66 0 112.5 -47t46.5 -113z" />
    <glyph glyph-name="yacute" unicode="&#xfd;" horiz-adv-x="1339" 
d="M1319 1053l-692 -1585h-416l278 585l-469 1000h414l242 -609l244 609h399zM997 1376l-391 -198l-92 141l350 258z" />
    <glyph glyph-name="thorn" unicode="&#xfe;" horiz-adv-x="1397" 
d="M936 524q0 122 -62 193t-163 71q-99 0 -157 -69.5t-58 -194.5q0 -117 59 -188.5t156 -71.5q104 0 164.5 70t60.5 190zM1325 524q0 -251 -130.5 -404t-342.5 -153q-147 0 -227 39.5t-129 136.5v-675h-367v2222h367v-781q60 90 143.5 133t200.5 43q223 0 354 -150.5
t131 -410.5z" />
    <glyph glyph-name="ydieresis" unicode="&#xff;" horiz-adv-x="1339" 
d="M1319 1053l-692 -1585h-416l278 585l-469 1000h414l242 -609l244 609h399zM627 1339q0 -68 -46 -114.5t-114 -46.5q-67 0 -114 47t-47 114q0 64 48.5 112t112.5 48q66 0 113 -47t47 -113zM1063 1339q0 -68 -45.5 -114.5t-113.5 -46.5t-115 47t-47 114q0 64 48.5 112
t113.5 48q66 0 112.5 -47t46.5 -113z" />
    <glyph glyph-name="Amacron" unicode="&#x100;" horiz-adv-x="1599" 
d="M1008 571l-205 656l-207 -656h412zM1610 0h-430l-84 274h-590l-86 -274h-430l549 1544h522zM1120 1735h-641v217h641v-217z" />
    <glyph glyph-name="amacron" unicode="&#x101;" horiz-adv-x="1397" 
d="M901 524q0 125 -58 194.5t-157 69.5q-101 0 -163 -71t-62 -193q0 -120 60.5 -190t164.5 -70q97 0 156 71.5t59 188.5zM1268 0h-367v143q-56 -93 -140.5 -134.5t-215.5 -41.5q-212 0 -342.5 153t-130.5 404q0 260 131 410.5t354 150.5q117 0 200.5 -43t143.5 -133v144h367
v-1053zM989 1243h-641v217h641v-217z" />
    <glyph glyph-name="Abreve" unicode="&#x102;" horiz-adv-x="1599" 
d="M1008 571l-205 656l-207 -656h412zM1610 0h-430l-84 274h-590l-86 -274h-430l549 1544h522zM1139 1995q-39 -158 -120 -231.5t-218 -73.5q-141 0 -229.5 79.5t-110.5 225.5l156 66q19 -78 65.5 -117t118.5 -39t116 38t64 118z" />
    <glyph glyph-name="abreve" unicode="&#x103;" horiz-adv-x="1397" 
d="M901 524q0 125 -58 194.5t-157 69.5q-101 0 -163 -71t-62 -193q0 -120 60.5 -190t164.5 -70q97 0 156 71.5t59 188.5zM1268 0h-367v143q-56 -93 -140.5 -134.5t-215.5 -41.5q-212 0 -342.5 153t-130.5 404q0 260 131 410.5t354 150.5q117 0 200.5 -43t143.5 -133v144h367
v-1053zM1008 1503q-39 -158 -120 -231.5t-218 -73.5q-141 0 -229.5 79.5t-110.5 225.5l156 66q19 -78 65.5 -117t118.5 -39t116 38t64 118z" />
    <glyph glyph-name="Aogonek" unicode="&#x104;" horiz-adv-x="1599" 
d="M1008 571l-205 656l-207 -656h412zM1610 -532q-213 0 -293 48t-80 177q0 73 45 154.5t125 152.5h-227l-84 274h-590l-86 -274h-430l549 1544h522l549 -1544h-8q-69 -68 -102.5 -126.5t-33.5 -111.5q0 -44 33.5 -61.5t110.5 -17.5v-215z" />
    <glyph glyph-name="aogonek" unicode="&#x105;" horiz-adv-x="1397" 
d="M901 524q0 125 -58 194.5t-157 69.5q-101 0 -163 -71t-62 -193q0 -120 60.5 -190t164.5 -70q97 0 156 71.5t59 188.5zM1268 -532q-213 0 -293 48t-80 177q0 73 45 154.5t125 152.5h-164v143q-56 -93 -140.5 -134.5t-215.5 -41.5q-212 0 -342.5 153t-130.5 404
q0 260 131 410.5t354 150.5q117 0 200.5 -43t143.5 -133v144h367v-1053h-8q-69 -68 -102.5 -126.5t-33.5 -111.5q0 -44 33.5 -61.5t110.5 -17.5v-215z" />
    <glyph glyph-name="Cacute" unicode="&#x106;" horiz-adv-x="1352" 
d="M1270 63q-74 -47 -178.5 -71.5t-231.5 -24.5q-340 0 -564 228t-224 575t224.5 577t563.5 230q130 0 233 -24t177 -72v-457q-70 78 -166.5 121t-200.5 43q-185 0 -299.5 -117.5t-114.5 -308.5q0 -178 116 -292t298 -114q101 0 199.5 43.5t167.5 120.5v-457zM1163 1868
l-391 -198l-92 141l350 258z" />
    <glyph glyph-name="cacute" unicode="&#x107;" horiz-adv-x="989" 
d="M907 41q-65 -39 -128 -56.5t-142 -17.5q-261 0 -413 150.5t-152 408.5q0 248 154 403.5t415 155.5q77 0 144.5 -16.5t121.5 -48.5v-350q-37 43 -92.5 67.5t-114.5 24.5q-110 0 -174.5 -64.5t-64.5 -169.5q0 -115 63.5 -176t184.5 -61q48 0 103.5 25.5t94.5 66.5v-342z
M932 1376l-391 -198l-92 141l350 258z" />
    <glyph glyph-name="Ccircumflex" unicode="&#x108;" horiz-adv-x="1352" 
d="M1270 63q-74 -47 -178.5 -71.5t-231.5 -24.5q-340 0 -564 228t-224 575t224.5 577t563.5 230q130 0 233 -24t177 -72v-457q-70 78 -166.5 121t-200.5 43q-185 0 -299.5 -117.5t-114.5 -308.5q0 -178 116 -292t298 -114q101 0 199.5 43.5t167.5 120.5v-457zM1202 1817
l-94 -147l-258 141l-258 -141l-94 147l352 277z" />
    <glyph glyph-name="ccircumflex" unicode="&#x109;" horiz-adv-x="989" 
d="M907 41q-65 -39 -128 -56.5t-142 -17.5q-261 0 -413 150.5t-152 408.5q0 248 154 403.5t415 155.5q77 0 144.5 -16.5t121.5 -48.5v-350q-37 43 -92.5 67.5t-114.5 24.5q-110 0 -174.5 -64.5t-64.5 -169.5q0 -115 63.5 -176t184.5 -61q48 0 103.5 25.5t94.5 66.5v-342z
M970 1325l-94 -147l-258 141l-258 -141l-94 147l352 277z" />
    <glyph glyph-name="Cdot" unicode="&#x10a;" horiz-adv-x="1352" 
d="M1270 63q-74 -47 -178.5 -71.5t-231.5 -24.5q-340 0 -564 228t-224 575t224.5 577t563.5 230q130 0 233 -24t177 -72v-457q-70 78 -166.5 121t-200.5 43q-185 0 -299.5 -117.5t-114.5 -308.5q0 -178 116 -292t298 -114q101 0 199.5 43.5t167.5 120.5v-457zM1011 1831
q0 -68 -45.5 -114.5t-113.5 -46.5t-115 47t-47 114q0 64 48.5 112t113.5 48q66 0 112.5 -47t46.5 -113z" />
    <glyph glyph-name="cdot" unicode="&#x10b;" horiz-adv-x="989" 
d="M907 41q-65 -39 -128 -56.5t-142 -17.5q-261 0 -413 150.5t-152 408.5q0 248 154 403.5t415 155.5q77 0 144.5 -16.5t121.5 -48.5v-350q-37 43 -92.5 67.5t-114.5 24.5q-110 0 -174.5 -64.5t-64.5 -169.5q0 -115 63.5 -176t184.5 -61q48 0 103.5 25.5t94.5 66.5v-342z
M780 1339q0 -68 -45.5 -114.5t-113.5 -46.5t-115 47t-47 114q0 64 48.5 112t113.5 48q66 0 112.5 -47t46.5 -113z" />
    <glyph glyph-name="Ccaron" unicode="&#x10c;" horiz-adv-x="1352" 
d="M1270 63q-74 -47 -178.5 -71.5t-231.5 -24.5q-340 0 -564 228t-224 575t224.5 577t563.5 230q130 0 233 -24t177 -72v-457q-70 78 -166.5 121t-200.5 43q-185 0 -299.5 -117.5t-114.5 -308.5q0 -178 116 -292t298 -114q101 0 199.5 43.5t167.5 120.5v-457zM1202 1946
l-352 -276l-352 276l94 148l258 -142l258 142z" />
    <glyph glyph-name="ccaron" unicode="&#x10d;" horiz-adv-x="989" 
d="M907 41q-65 -39 -128 -56.5t-142 -17.5q-261 0 -413 150.5t-152 408.5q0 248 154 403.5t415 155.5q77 0 144.5 -16.5t121.5 -48.5v-350q-37 43 -92.5 67.5t-114.5 24.5q-110 0 -174.5 -64.5t-64.5 -169.5q0 -115 63.5 -176t184.5 -61q48 0 103.5 25.5t94.5 66.5v-342z
M970 1454l-352 -276l-352 276l94 148l258 -142l258 142z" />
    <glyph glyph-name="Dcaron" unicode="&#x10e;" horiz-adv-x="1540" 
d="M1051 770q0 223 -114.5 328.5t-356.5 105.5h-35v-864h35q243 0 357 104.5t114 325.5zM1468 770q0 -390 -227 -580t-704 -190h-394v1544h334q529 0 760 -188t231 -586zM1015 1946l-352 -276l-352 276l94 148l258 -142l258 142z" />
    <glyph glyph-name="dcaron" unicode="&#x10f;" horiz-adv-x="2159" 
d="M901 528q0 117 -59 188.5t-156 71.5q-104 0 -164.5 -69.5t-60.5 -190.5t62 -192.5t163 -71.5q99 0 157 69.5t58 194.5zM1268 0h-367v143q-60 -90 -143.5 -133t-200.5 -43q-223 0 -354 151t-131 410q0 251 130.5 404t342.5 153q147 0 227 -39.5t129 -136.5v781h367v-1690z
M2089 1544l-323 -655h-289l221 655h391z" />
    <glyph glyph-name="Dslash" unicode="&#x110;" horiz-adv-x="1540" 
d="M1051 770q0 223 -114.5 328.5t-356.5 105.5h-35v-295h235v-262h-235v-307h35q243 0 357 104.5t114 325.5zM1468 770q0 -390 -227 -580t-704 -190h-394v647h-143v262h143v635h334q529 0 760 -188t231 -586z" />
    <glyph glyph-name="dcroat" unicode="&#x111;" horiz-adv-x="1397" 
d="M901 528q0 117 -59 188.5t-156 71.5q-104 0 -164.5 -69.5t-60.5 -190.5t62 -192.5t163 -71.5q99 0 157 69.5t58 194.5zM1397 1274h-129v-1274h-367v143q-60 -90 -143.5 -133t-200.5 -43q-223 0 -354 151t-131 410q0 251 130.5 404t342.5 153q147 0 227 -39.5t129 -136.5
v365h-326v221h326v195h367v-195h129v-221z" />
    <glyph glyph-name="Emacron" unicode="&#x112;" horiz-adv-x="1126" 
d="M1026 0h-883v1544h883v-340h-481v-258h461v-328h-461v-278h481v-340zM893 1735h-641v217h641v-217z" />
    <glyph glyph-name="emacron" unicode="&#x113;" horiz-adv-x="1249" 
d="M819 660q-10 93 -63 146.5t-135 53.5q-83 0 -136 -57.5t-55 -142.5h389zM1178 455h-748q0 -108 58.5 -170t154.5 -62q60 0 117.5 32.5t83.5 86.5l280 -113q-76 -142 -190 -202t-297 -60q-270 0 -417.5 145t-147.5 404q0 254 150 411.5t401 157.5q259 0 407 -163t148 -451
v-16zM946 1243h-641v217h641v-217z" />
    <glyph glyph-name="Ebreve" unicode="&#x114;" horiz-adv-x="1126" 
d="M1026 0h-883v1544h883v-340h-481v-258h461v-328h-461v-278h481v-340zM911 1995q-39 -158 -120 -231.5t-218 -73.5q-141 0 -229.5 79.5t-110.5 225.5l156 66q19 -78 65.5 -117t118.5 -39t116 38t64 118z" />
    <glyph glyph-name="ebreve" unicode="&#x115;" horiz-adv-x="1249" 
d="M819 660q-10 93 -63 146.5t-135 53.5q-83 0 -136 -57.5t-55 -142.5h389zM1178 455h-748q0 -108 58.5 -170t154.5 -62q60 0 117.5 32.5t83.5 86.5l280 -113q-76 -142 -190 -202t-297 -60q-270 0 -417.5 145t-147.5 404q0 254 150 411.5t401 157.5q259 0 407 -163t148 -451
v-16zM965 1503q-39 -158 -120 -231.5t-218 -73.5q-141 0 -229.5 79.5t-110.5 225.5l156 66q19 -78 65.5 -117t118.5 -39t116 38t64 118z" />
    <glyph glyph-name="Edot" unicode="&#x116;" horiz-adv-x="1126" 
d="M1026 0h-883v1544h883v-340h-481v-258h461v-328h-461v-278h481v-340zM735 1831q0 -68 -45.5 -114.5t-113.5 -46.5t-115 47t-47 114q0 64 48.5 112t113.5 48q66 0 112.5 -47t46.5 -113z" />
    <glyph glyph-name="edot" unicode="&#x117;" horiz-adv-x="1249" 
d="M819 660q-10 93 -63 146.5t-135 53.5q-83 0 -136 -57.5t-55 -142.5h389zM1178 455h-748q0 -108 58.5 -170t154.5 -62q60 0 117.5 32.5t83.5 86.5l280 -113q-76 -142 -190 -202t-297 -60q-270 0 -417.5 145t-147.5 404q0 254 150 411.5t401 157.5q259 0 407 -163t148 -451
v-16zM786 1339q0 -68 -45.5 -114.5t-113.5 -46.5t-115 47t-47 114q0 64 48.5 112t113.5 48q66 0 112.5 -47t46.5 -113z" />
    <glyph glyph-name="Eogonek" unicode="&#x118;" horiz-adv-x="1126" 
d="M1026 -532q-213 0 -293 48t-80 177q0 73 45 154.5t125 152.5h-680v1544h883v-340h-481v-258h461v-328h-461v-278h481v-340h-8q-68 -68 -101.5 -126.5t-33.5 -111.5q0 -44 33 -61.5t110 -17.5v-215z" />
    <glyph glyph-name="eogonek" unicode="&#x119;" horiz-adv-x="1249" 
d="M819 660q-10 93 -63 146.5t-135 53.5q-83 0 -136 -57.5t-55 -142.5h389zM1178 455h-748q0 -108 58.5 -170t154.5 -62q60 0 117.5 32.5t83.5 86.5l280 -113q-56 -103 -126.5 -160t-170.5 -81q-62 -65 -92 -120.5t-30 -105.5q0 -44 33 -61.5t110 -17.5v-215q-213 0 -293 48
t-80 177q0 65 35.5 137.5t99.5 136.5q-257 8 -397.5 152.5t-140.5 396.5q0 254 150 411.5t401 157.5q259 0 407 -163t148 -451v-16z" />
    <glyph glyph-name="Ecaron" unicode="&#x11a;" horiz-adv-x="1126" 
d="M1026 0h-883v1544h883v-340h-481v-258h461v-328h-461v-278h481v-340zM925 1946l-352 -276l-352 276l94 148l258 -142l258 142z" />
    <glyph glyph-name="ecaron" unicode="&#x11b;" horiz-adv-x="1249" 
d="M819 660q-10 93 -63 146.5t-135 53.5q-83 0 -136 -57.5t-55 -142.5h389zM1178 455h-748q0 -108 58.5 -170t154.5 -62q60 0 117.5 32.5t83.5 86.5l280 -113q-76 -142 -190 -202t-297 -60q-270 0 -417.5 145t-147.5 404q0 254 150 411.5t401 157.5q259 0 407 -163t148 -451
v-16zM976 1454l-352 -276l-352 276l94 148l258 -142l258 142z" />
    <glyph glyph-name="Gcircumflex" unicode="&#x11c;" horiz-adv-x="1724" 
d="M1653 797q0 -408 -196.5 -619t-575.5 -211q-354 0 -581.5 224t-227.5 577q0 349 233 579t586 230q223 0 397.5 -89.5t292.5 -264.5l-362 -176q-65 89 -146 132.5t-182 43.5q-185 0 -293.5 -126.5t-108.5 -344.5q0 -206 106.5 -327.5t285.5 -121.5q156 0 253.5 71.5
t112.5 192.5h-383v328h789v-98zM1214 1817l-94 -147l-258 141l-258 -141l-94 147l352 277z" />
    <glyph glyph-name="gcircumflex" unicode="&#x11d;" horiz-adv-x="1386" 
d="M901 541q0 121 -55.5 184t-159.5 63q-105 0 -165 -64.5t-60 -182.5q0 -117 59 -180.5t166 -63.5q100 0 157.5 65t57.5 179zM1268 -43q0 -250 -152.5 -380t-445.5 -130q-237 0 -386 116t-149 292h385q0 -47 50 -77t128 -30q109 0 156 66.5t47 214.5v147
q-49 -97 -129 -136.5t-227 -39.5q-215 0 -344 146.5t-129 394.5q0 256 129 400t356 144q117 0 200.5 -43t143.5 -133v144h367v-1096zM1046 1325l-94 -147l-258 141l-258 -141l-94 147l352 277z" />
    <glyph glyph-name="Gbreve" unicode="&#x11e;" horiz-adv-x="1724" 
d="M1653 797q0 -408 -196.5 -619t-575.5 -211q-354 0 -581.5 224t-227.5 577q0 349 233 579t586 230q223 0 397.5 -89.5t292.5 -264.5l-362 -176q-65 89 -146 132.5t-182 43.5q-185 0 -293.5 -126.5t-108.5 -344.5q0 -206 106.5 -327.5t285.5 -121.5q156 0 253.5 71.5
t112.5 192.5h-383v328h789v-98zM1202 1995q-39 -158 -120 -231.5t-218 -73.5q-141 0 -229.5 79.5t-110.5 225.5l156 66q19 -78 65.5 -117t118.5 -39t116 38t64 118z" />
    <glyph glyph-name="gbreve" unicode="&#x11f;" horiz-adv-x="1386" 
d="M901 541q0 121 -55.5 184t-159.5 63q-105 0 -165 -64.5t-60 -182.5q0 -117 59 -180.5t166 -63.5q100 0 157.5 65t57.5 179zM1268 -43q0 -250 -152.5 -380t-445.5 -130q-237 0 -386 116t-149 292h385q0 -47 50 -77t128 -30q109 0 156 66.5t47 214.5v147
q-49 -97 -129 -136.5t-227 -39.5q-215 0 -344 146.5t-129 394.5q0 256 129 400t356 144q117 0 200.5 -43t143.5 -133v144h367v-1096zM1032 1503q-39 -158 -120 -231.5t-218 -73.5q-141 0 -229.5 79.5t-110.5 225.5l156 66q19 -78 65.5 -117t118.5 -39t116 38t64 118z" />
    <glyph glyph-name="Gdot" unicode="&#x120;" horiz-adv-x="1724" 
d="M1653 797q0 -408 -196.5 -619t-575.5 -211q-354 0 -581.5 224t-227.5 577q0 349 233 579t586 230q223 0 397.5 -89.5t292.5 -264.5l-362 -176q-65 89 -146 132.5t-182 43.5q-185 0 -293.5 -126.5t-108.5 -344.5q0 -206 106.5 -327.5t285.5 -121.5q156 0 253.5 71.5
t112.5 192.5h-383v328h789v-98zM1024 1831q0 -68 -45.5 -114.5t-113.5 -46.5t-115 47t-47 114q0 64 48.5 112t113.5 48q66 0 112.5 -47t46.5 -113z" />
    <glyph glyph-name="gdot" unicode="&#x121;" horiz-adv-x="1386" 
d="M901 541q0 121 -55.5 184t-159.5 63q-105 0 -165 -64.5t-60 -182.5q0 -117 59 -180.5t166 -63.5q100 0 157.5 65t57.5 179zM1268 -43q0 -250 -152.5 -380t-445.5 -130q-237 0 -386 116t-149 292h385q0 -47 50 -77t128 -30q109 0 156 66.5t47 214.5v147
q-49 -97 -129 -136.5t-227 -39.5q-215 0 -344 146.5t-129 394.5q0 256 129 400t356 144q117 0 200.5 -43t143.5 -133v144h367v-1096zM856 1339q0 -68 -45.5 -114.5t-113.5 -46.5t-115 47t-47 114q0 64 48.5 112t113.5 48q66 0 112.5 -47t46.5 -113z" />
    <glyph glyph-name="Gcedilla" unicode="&#x122;" horiz-adv-x="1724" 
d="M1653 797q0 -408 -196.5 -619t-575.5 -211q-354 0 -581.5 224t-227.5 577q0 349 233 579t586 230q223 0 397.5 -89.5t292.5 -264.5l-362 -176q-65 89 -146 132.5t-182 43.5q-185 0 -293.5 -126.5t-108.5 -344.5q0 -206 106.5 -327.5t285.5 -121.5q156 0 253.5 71.5
t112.5 192.5h-383v328h789v-98zM1087 -199l-323 -354l-137 109l256 397z" />
    <glyph glyph-name="gcedilla" unicode="&#x123;" horiz-adv-x="1386" 
d="M901 541q0 121 -55.5 184t-159.5 63q-105 0 -165 -64.5t-60 -182.5q0 -117 59 -180.5t166 -63.5q100 0 157.5 65t57.5 179zM1268 -43q0 -250 -152.5 -380t-445.5 -130q-237 0 -386 116t-149 292h385q0 -47 50 -77t128 -30q109 0 156 66.5t47 214.5v147
q-49 -97 -129 -136.5t-227 -39.5q-215 0 -344 146.5t-129 394.5q0 256 129 400t356 144q117 0 200.5 -43t143.5 -133v144h367v-1096zM1008 1376l-391 -198l-92 141l350 258z" />
    <glyph glyph-name="Hcircumflex" unicode="&#x124;" horiz-adv-x="1645" 
d="M1501 0h-401v618h-555v-618h-402v1544h402v-598h555v598h401v-1544zM1175 1817l-94 -147l-258 141l-258 -141l-94 147l352 277z" />
    <glyph glyph-name="hcircumflex" unicode="&#x125;" horiz-adv-x="1354" 
d="M1235 0h-373v547q0 134 -36 187.5t-124 53.5q-104 0 -152 -87.5t-48 -274.5v-426h-373v1690h373v-813q71 115 151 161.5t205 46.5q202 0 289.5 -114t87.5 -371v-600zM684 1929l-94 -147l-258 141l-258 -141l-94 147l352 277z" />
    <glyph glyph-name="Itilde" unicode="&#x128;" horiz-adv-x="664" 
d="M532 0h-401v1544h401v-1544zM699 1897q-36 -109 -99 -168t-143 -59q-65 0 -149 52t-103 52q-23 0 -42.5 -23.5t-47.5 -78.5l-147 90q38 110 99 167.5t140 57.5q64 0 151 -52t103 -52q26 0 43 20t47 82z" />
    <glyph glyph-name="itilde" unicode="&#x129;" horiz-adv-x="618" 
d="M496 0h-373v1053h373v-1053zM676 1405q-36 -109 -99 -168t-143 -59q-65 0 -149 52t-103 52q-23 0 -42.5 -23.5t-47.5 -78.5l-147 90q38 110 99 167.5t140 57.5q64 0 151 -52t103 -52q26 0 43 20t47 82z" />
    <glyph glyph-name="Imacron" unicode="&#x12a;" horiz-adv-x="664" 
d="M532 0h-401v1544h401v-1544zM653 1735h-641v217h641v-217z" />
    <glyph glyph-name="imacron" unicode="&#x12b;" horiz-adv-x="618" 
d="M496 0h-373v1053h373v-1053zM631 1243h-641v217h641v-217z" />
    <glyph glyph-name="Ibreve" unicode="&#x12c;" horiz-adv-x="664" 
d="M532 0h-401v1544h401v-1544zM672 1995q-39 -158 -120 -231.5t-218 -73.5q-141 0 -229.5 79.5t-110.5 225.5l156 66q19 -78 65.5 -117t118.5 -39t116 38t64 118z" />
    <glyph glyph-name="ibreve" unicode="&#x12d;" horiz-adv-x="618" 
d="M496 0h-373v1053h373v-1053zM649 1503q-39 -158 -120 -231.5t-218 -73.5q-141 0 -229.5 79.5t-110.5 225.5l156 66q19 -78 65.5 -117t118.5 -39t116 38t64 118z" />
    <glyph glyph-name="Iogonek" unicode="&#x12e;" horiz-adv-x="664" 
d="M532 -532q-213 0 -292.5 48t-79.5 177q0 73 44.5 154.5t125.5 152.5h-199v1544h401v-1544h-8q-68 -68 -101.5 -126.5t-33.5 -111.5q0 -44 33 -61.5t110 -17.5v-215z" />
    <glyph glyph-name="iogonek" unicode="&#x12f;" horiz-adv-x="618" 
d="M496 -532q-214 0 -293.5 48t-79.5 177q0 73 44.5 154.5t125.5 152.5h-170v1053h373v-1053h-9q-68 -68 -101.5 -126.5t-33.5 -111.5q0 -44 33 -61.5t111 -17.5v-215zM514 1372q0 -85 -60.5 -147t-144.5 -62q-83 0 -144 62.5t-61 146.5t60.5 144.5t144.5 60.5
q85 0 145 -59.5t60 -145.5z" />
    <glyph glyph-name="Idotaccent" unicode="&#x130;" horiz-adv-x="664" 
d="M532 0h-401v1544h401v-1544zM493 1831q0 -68 -45.5 -114.5t-113.5 -46.5t-115 47t-47 114q0 64 48.5 112t113.5 48q66 0 112.5 -47t46.5 -113z" />
    <glyph glyph-name="dotlessi" unicode="&#x131;" horiz-adv-x="618" 
d="M496 0h-373v1053h373v-1053z" />
    <glyph glyph-name="Kcedilla" unicode="&#x136;" horiz-adv-x="1552" 
d="M1567 0h-510l-512 721v-721h-402v1544h402v-696l518 696h475l-598 -747zM1001 -199l-323 -354l-137 109l256 397z" />
    <glyph glyph-name="kcedilla" unicode="&#x137;" horiz-adv-x="1409" 
d="M1391 0h-492l-397 469v-469h-373v1690h373v-1094l383 457h463l-476 -504zM929 -199l-323 -354l-137 109l256 397z" />
    <glyph glyph-name="Lacute" unicode="&#x139;" horiz-adv-x="1014" 
d="M979 0h-836v1544h418v-1190h418v-354zM668 1868l-391 -198l-92 141l350 258z" />
    <glyph glyph-name="lacute" unicode="&#x13a;" horiz-adv-x="618" 
d="M496 0h-373v1690h373v-1690zM623 1980l-391 -198l-92 141l350 258z" />
    <glyph glyph-name="Lcedilla" unicode="&#x13b;" horiz-adv-x="1014" 
d="M979 0h-836v1544h418v-1190h418v-354zM733 -199l-323 -354l-137 109l256 397z" />
    <glyph glyph-name="lcedilla" unicode="&#x13c;" horiz-adv-x="618" 
d="M496 0h-373v1690h373v-1690zM534 -199l-323 -354l-137 109l256 397z" />
    <glyph glyph-name="Lcaron" unicode="&#x13d;" horiz-adv-x="1139" 
d="M979 0h-836v1544h418v-1190h418v-354zM1180 1544l-248 -543h-289l166 543h371z" />
    <glyph glyph-name="lcaron" unicode="&#x13e;" horiz-adv-x="1073" 
d="M496 0h-373v1690h373v-1690zM1114 1544l-248 -543h-288l165 543h371z" />
    <glyph glyph-name="Ldot" unicode="&#x13f;" horiz-adv-x="1716" 
d="M979 0h-836v1544h418v-1190h418v-354zM1577 756q0 -90 -61.5 -151.5t-151.5 -61.5q-88 0 -149.5 61.5t-61.5 151.5q0 87 61 148t150 61q90 0 151.5 -60.5t61.5 -148.5z" />
    <glyph glyph-name="ldot" unicode="&#x140;" horiz-adv-x="1321" 
d="M496 0h-373v1690h373v-1690zM1181 756q0 -90 -61.5 -151.5t-151.5 -61.5q-88 0 -149.5 61.5t-61.5 151.5q0 87 61 148t150 61q90 0 151.5 -60.5t61.5 -148.5z" />
    <glyph glyph-name="Lslash" unicode="&#x141;" horiz-adv-x="1092" 
d="M1057 0h-842v530l-90 -61l-145 221l235 162v692h418v-440l194 133l146 -221l-340 -234v-428h424v-354z" />
    <glyph glyph-name="lslash" unicode="&#x142;" horiz-adv-x="750" 
d="M770 903l-223 -164v-739h-373v512l-61 -47l-133 182l194 144v899h373v-672l90 67z" />
    <glyph glyph-name="Nacute" unicode="&#x143;" horiz-adv-x="1804" 
d="M1661 0h-401l-715 958v-958h-402v1544h404l713 -960v960h401v-1544zM1217 1868l-391 -198l-92 141l350 258z" />
    <glyph glyph-name="nacute" unicode="&#x144;" horiz-adv-x="1354" 
d="M1235 0h-373v547q0 134 -36 187.5t-124 53.5q-102 0 -151 -88.5t-49 -273.5v-426h-373v1053h373v-176q71 115 151 161.5t205 46.5q202 0 289.5 -114t87.5 -371v-600zM991 1376l-391 -198l-92 141l350 258z" />
    <glyph glyph-name="Ncedilla" unicode="&#x145;" horiz-adv-x="1804" 
d="M1661 0h-401l-715 958v-958h-402v1544h404l713 -960v960h401v-1544zM1128 -199l-323 -354l-137 109l256 397z" />
    <glyph glyph-name="ncedilla" unicode="&#x146;" horiz-adv-x="1354" 
d="M1235 0h-373v547q0 134 -36 187.5t-124 53.5q-102 0 -151 -88.5t-49 -273.5v-426h-373v1053h373v-176q71 115 151 161.5t205 46.5q202 0 289.5 -114t87.5 -371v-600zM903 -199l-323 -354l-137 109l256 397z" />
    <glyph glyph-name="Ncaron" unicode="&#x147;" horiz-adv-x="1804" 
d="M1661 0h-401l-715 958v-958h-402v1544h404l713 -960v960h401v-1544zM1255 1946l-352 -276l-352 276l94 148l258 -142l258 142z" />
    <glyph glyph-name="ncaron" unicode="&#x148;" horiz-adv-x="1354" 
d="M1235 0h-373v547q0 134 -36 187.5t-124 53.5q-102 0 -151 -88.5t-49 -273.5v-426h-373v1053h373v-176q71 115 151 161.5t205 46.5q202 0 289.5 -114t87.5 -371v-600zM1030 1454l-352 -276l-352 276l94 148l258 -142l258 142z" />
    <glyph glyph-name="Omacron" unicode="&#x14c;" horiz-adv-x="1817" 
d="M1327 770q0 178 -118.5 298t-299.5 120q-185 0 -302.5 -118.5t-117.5 -299.5q0 -178 118.5 -296t301.5 -118q182 0 300 118.5t118 295.5zM1745 770q0 -341 -240.5 -572t-595.5 -231q-356 0 -596.5 231t-240.5 572q0 340 241.5 573.5t595.5 233.5q355 0 595.5 -233
t240.5 -574zM1229 1735h-641v217h641v-217z" />
    <glyph glyph-name="omacron" unicode="&#x14d;" horiz-adv-x="1356" 
d="M895 526q0 100 -62 168t-155 68q-98 0 -157.5 -68t-59.5 -168q0 -107 58.5 -171t158.5 -64q96 0 156.5 64t60.5 171zM1284 526q0 -240 -171.5 -399.5t-434.5 -159.5q-266 0 -436 159t-170 400q0 237 174 398t432 161q264 0 435 -156.5t171 -402.5zM999 1243h-641v217h641
v-217z" />
    <glyph glyph-name="Obreve" unicode="&#x14e;" horiz-adv-x="1817" 
d="M1327 770q0 178 -118.5 298t-299.5 120q-185 0 -302.5 -118.5t-117.5 -299.5q0 -178 118.5 -296t301.5 -118q182 0 300 118.5t118 295.5zM1745 770q0 -341 -240.5 -572t-595.5 -231q-356 0 -596.5 231t-240.5 572q0 340 241.5 573.5t595.5 233.5q355 0 595.5 -233
t240.5 -574zM1247 1995q-39 -158 -120 -231.5t-218 -73.5q-141 0 -229.5 79.5t-110.5 225.5l156 66q19 -78 65.5 -117t118.5 -39t116 38t64 118z" />
    <glyph glyph-name="obreve" unicode="&#x14f;" horiz-adv-x="1356" 
d="M895 526q0 100 -62 168t-155 68q-98 0 -157.5 -68t-59.5 -168q0 -107 58.5 -171t158.5 -64q96 0 156.5 64t60.5 171zM1284 526q0 -240 -171.5 -399.5t-434.5 -159.5q-266 0 -436 159t-170 400q0 237 174 398t432 161q264 0 435 -156.5t171 -402.5zM1018 1503
q-39 -158 -120 -231.5t-218 -73.5q-141 0 -229.5 79.5t-110.5 225.5l156 66q19 -78 65.5 -117t118.5 -39t116 38t64 118z" />
    <glyph glyph-name="Odblacute" unicode="&#x150;" horiz-adv-x="1817" 
d="M1327 770q0 178 -118.5 298t-299.5 120q-185 0 -302.5 -118.5t-117.5 -299.5q0 -178 118.5 -296t301.5 -118q182 0 300 118.5t118 295.5zM1745 770q0 -341 -240.5 -572t-595.5 -231q-356 0 -596.5 231t-240.5 572q0 340 241.5 573.5t595.5 233.5q355 0 595.5 -233
t240.5 -574zM942 1975l-209 -305l-154 82l135 342zM1317 1926l-283 -256l-129 118l217 306z" />
    <glyph glyph-name="odblacute" unicode="&#x151;" horiz-adv-x="1356" 
d="M895 526q0 100 -62 168t-155 68q-98 0 -157.5 -68t-59.5 -168q0 -107 58.5 -171t158.5 -64q96 0 156.5 64t60.5 171zM1284 526q0 -240 -171.5 -399.5t-434.5 -159.5q-266 0 -436 159t-170 400q0 237 174 398t432 161q264 0 435 -156.5t171 -402.5zM713 1483l-209 -305
l-154 82l135 342zM1088 1434l-283 -256l-129 118l217 306z" />
    <glyph glyph-name="OE" unicode="&#x152;" horiz-adv-x="2335" 
d="M1327 770q0 178 -118.5 298t-299.5 120q-185 0 -302.5 -118.5t-117.5 -299.5q0 -178 118.5 -296t301.5 -118q182 0 300 118.5t118 295.5zM2234 0h-907v125q-75 -75 -183.5 -116.5t-234.5 -41.5q-356 0 -596.5 231t-240.5 572q0 340 241.5 573.5t595.5 233.5
q132 0 242 -42t176 -118v127h907v-340h-505v-258h485v-328h-485v-278h505v-340z" />
    <glyph glyph-name="oe" unicode="&#x153;" horiz-adv-x="2093" 
d="M895 526q0 100 -62 168t-155 68q-98 0 -157.5 -68t-59.5 -168q0 -107 58.5 -171t158.5 -64q96 0 156.5 64t60.5 171zM1663 660q-9 90 -66.5 145t-142.5 55t-142 -59t-59 -141h410zM2021 455h-768q0 -106 62.5 -169t161.5 -63q61 0 123 33t88 86l280 -113
q-75 -139 -193 -200.5t-305 -61.5q-138 0 -240.5 50t-164.5 147q-66 -91 -175.5 -144t-236.5 -53q-261 0 -421 156t-160 403q0 241 164 400t417 159q128 0 239.5 -53.5t176.5 -144.5q61 98 159 148t228 50q261 0 413 -164.5t152 -449.5v-16z" />
    <glyph glyph-name="Racute" unicode="&#x154;" horiz-adv-x="1393" 
d="M877 1004q0 114 -57.5 163.5t-194.5 49.5h-80v-410h73q133 0 196 48t63 149zM1372 0h-473l-354 600v-600h-402v1544h471q376 0 528 -117.5t152 -371.5q0 -178 -88 -290.5t-256 -148.5zM1010 1868l-391 -198l-92 141l350 258z" />
    <glyph glyph-name="racute" unicode="&#x155;" horiz-adv-x="928" 
d="M928 1079l-38 -364q-40 11 -70 15.5t-58 4.5q-132 0 -197 -79.5t-65 -239.5v-416h-371v1053h371v-203q57 120 136.5 177.5t184.5 57.5q20 0 46.5 -1.5t60.5 -4.5zM778 1376l-391 -198l-92 141l350 258z" />
    <glyph glyph-name="Rcedilla" unicode="&#x156;" horiz-adv-x="1393" 
d="M877 1004q0 114 -57.5 163.5t-194.5 49.5h-80v-410h73q133 0 196 48t63 149zM1372 0h-473l-354 600v-600h-402v1544h471q376 0 528 -117.5t152 -371.5q0 -178 -88 -290.5t-256 -148.5zM921 -199l-323 -354l-137 109l256 397z" />
    <glyph glyph-name="rcedilla" unicode="&#x157;" horiz-adv-x="928" 
d="M928 1079l-38 -364q-40 11 -70 15.5t-58 4.5q-132 0 -197 -79.5t-65 -239.5v-416h-371v1053h371v-203q57 120 136.5 177.5t184.5 57.5q20 0 46.5 -1.5t60.5 -4.5zM548 -199l-323 -354l-137 109l256 397z" />
    <glyph glyph-name="Rcaron" unicode="&#x158;" horiz-adv-x="1393" 
d="M877 1004q0 114 -57.5 163.5t-194.5 49.5h-80v-410h73q133 0 196 48t63 149zM1372 0h-473l-354 600v-600h-402v1544h471q376 0 528 -117.5t152 -371.5q0 -178 -88 -290.5t-256 -148.5zM1048 1946l-352 -276l-352 276l94 148l258 -142l258 142z" />
    <glyph glyph-name="rcaron" unicode="&#x159;" horiz-adv-x="928" 
d="M928 1079l-38 -364q-40 11 -70 15.5t-58 4.5q-132 0 -197 -79.5t-65 -239.5v-416h-371v1053h371v-203q57 120 136.5 177.5t184.5 57.5q20 0 46.5 -1.5t60.5 -4.5zM817 1454l-352 -276l-352 276l94 148l258 -142l258 142z" />
    <glyph glyph-name="Sacute" unicode="&#x15a;" horiz-adv-x="1262" 
d="M1176 487q0 -237 -164 -378.5t-437 -141.5q-160 0 -289 53.5t-255 172.5l188 290q85 -96 174 -142t191 -46q84 0 137 44t53 114q0 76 -48.5 118.5t-209.5 83.5q-215 56 -315.5 163.5t-100.5 281.5q0 214 147.5 345.5t387.5 131.5q129 0 242 -34t213 -103l-132 -310
q-68 58 -143.5 88.5t-150.5 30.5q-80 0 -127.5 -31.5t-47.5 -84.5q0 -103 227 -162q15 -4 23 -6q233 -62 335 -175t102 -303zM944 1868l-391 -198l-92 141l350 258z" />
    <glyph glyph-name="sacute" unicode="&#x15b;" horiz-adv-x="1051" 
d="M993 322q0 -162 -123 -258.5t-331 -96.5q-138 0 -256.5 32t-225.5 97l78 285q79 -70 178 -109t199 -39q69 0 99 19t30 61q0 73 -143 107q-43 10 -68 16q-165 43 -242 119.5t-77 196.5q0 152 115 242.5t313 90.5q114 0 216 -23t206 -73l-76 -256q-70 48 -151 75.5
t-154 27.5q-65 0 -97 -18.5t-32 -55.5q0 -56 148 -95q60 -15 95 -26q160 -49 229.5 -124t69.5 -195zM840 1376l-391 -198l-92 141l350 258z" />
    <glyph glyph-name="Scircumflex" unicode="&#x15c;" horiz-adv-x="1262" 
d="M1176 487q0 -237 -164 -378.5t-437 -141.5q-160 0 -289 53.5t-255 172.5l188 290q85 -96 174 -142t191 -46q84 0 137 44t53 114q0 76 -48.5 118.5t-209.5 83.5q-215 56 -315.5 163.5t-100.5 281.5q0 214 147.5 345.5t387.5 131.5q129 0 242 -34t213 -103l-132 -310
q-68 58 -143.5 88.5t-150.5 30.5q-80 0 -127.5 -31.5t-47.5 -84.5q0 -103 227 -162q15 -4 23 -6q233 -62 335 -175t102 -303zM983 1817l-94 -147l-258 141l-258 -141l-94 147l352 277z" />
    <glyph glyph-name="scircumflex" unicode="&#x15d;" horiz-adv-x="1051" 
d="M993 322q0 -162 -123 -258.5t-331 -96.5q-138 0 -256.5 32t-225.5 97l78 285q79 -70 178 -109t199 -39q69 0 99 19t30 61q0 73 -143 107q-43 10 -68 16q-165 43 -242 119.5t-77 196.5q0 152 115 242.5t313 90.5q114 0 216 -23t206 -73l-76 -256q-70 48 -151 75.5
t-154 27.5q-65 0 -97 -18.5t-32 -55.5q0 -56 148 -95q60 -15 95 -26q160 -49 229.5 -124t69.5 -195zM878 1325l-94 -147l-258 141l-258 -141l-94 147l352 277z" />
    <glyph glyph-name="Scedilla" unicode="&#x15e;" horiz-adv-x="1262" 
d="M1176 487q0 -237 -164 -378.5t-437 -141.5q-160 0 -289 53.5t-255 172.5l188 290q85 -96 174 -142t191 -46q84 0 137 44t53 114q0 76 -48.5 118.5t-209.5 83.5q-215 56 -315.5 163.5t-100.5 281.5q0 214 147.5 345.5t387.5 131.5q129 0 242 -34t213 -103l-132 -310
q-68 58 -143.5 88.5t-150.5 30.5q-80 0 -127.5 -31.5t-47.5 -84.5q0 -103 227 -162q15 -4 23 -6q233 -62 335 -175t102 -303zM856 -199l-323 -354l-137 109l256 397z" />
    <glyph glyph-name="scedilla" unicode="&#x15f;" horiz-adv-x="1051" 
d="M993 322q0 -162 -123 -258.5t-331 -96.5q-138 0 -256.5 32t-225.5 97l78 285q79 -70 178 -109t199 -39q69 0 99 19t30 61q0 73 -143 107q-43 10 -68 16q-165 43 -242 119.5t-77 196.5q0 152 115 242.5t313 90.5q114 0 216 -23t206 -73l-76 -256q-70 48 -151 75.5
t-154 27.5q-65 0 -97 -18.5t-32 -55.5q0 -56 148 -95q60 -15 95 -26q160 -49 229.5 -124t69.5 -195zM751 -199l-323 -354l-137 109l256 397z" />
    <glyph glyph-name="Scaron" unicode="&#x160;" horiz-adv-x="1262" 
d="M1176 487q0 -237 -164 -378.5t-437 -141.5q-160 0 -289 53.5t-255 172.5l188 290q85 -96 174 -142t191 -46q84 0 137 44t53 114q0 76 -48.5 118.5t-209.5 83.5q-215 56 -315.5 163.5t-100.5 281.5q0 214 147.5 345.5t387.5 131.5q129 0 242 -34t213 -103l-132 -310
q-68 58 -143.5 88.5t-150.5 30.5q-80 0 -127.5 -31.5t-47.5 -84.5q0 -103 227 -162q15 -4 23 -6q233 -62 335 -175t102 -303zM983 1946l-352 -276l-352 276l94 148l258 -142l258 142z" />
    <glyph glyph-name="scaron" unicode="&#x161;" horiz-adv-x="1051" 
d="M993 322q0 -162 -123 -258.5t-331 -96.5q-138 0 -256.5 32t-225.5 97l78 285q79 -70 178 -109t199 -39q69 0 99 19t30 61q0 73 -143 107q-43 10 -68 16q-165 43 -242 119.5t-77 196.5q0 152 115 242.5t313 90.5q114 0 216 -23t206 -73l-76 -256q-70 48 -151 75.5
t-154 27.5q-65 0 -97 -18.5t-32 -55.5q0 -56 148 -95q60 -15 95 -26q160 -49 229.5 -124t69.5 -195zM878 1454l-352 -276l-352 276l94 148l258 -142l258 142z" />
    <glyph glyph-name="Tcedilla" unicode="&#x162;" horiz-adv-x="1092" 
d="M1061 1190h-313v-1190h-402v1190h-315v354h1030v-354zM772 -199l-323 -354l-137 109l256 397z" />
    <glyph glyph-name="tcedilla" unicode="&#x163;" horiz-adv-x="737" 
d="M727 756h-180v-756h-373v756h-123v297h123v317h373v-317h180v-297zM594 -199l-323 -354l-137 109l256 397z" />
    <glyph glyph-name="Tcaron" unicode="&#x164;" horiz-adv-x="1092" 
d="M1061 1190h-313v-1190h-402v1190h-315v354h1030v-354zM899 1946l-352 -276l-352 276l94 148l258 -142l258 142z" />
    <glyph glyph-name="tcaron" unicode="&#x165;" horiz-adv-x="1104" 
d="M727 756h-180v-756h-373v756h-123v297h123v317h373v-317h180v-297zM1145 1544l-227 -409h-289l145 409h371z" />
    <glyph glyph-name="Utilde" unicode="&#x168;" horiz-adv-x="1593" 
d="M1460 713q0 -430 -148.5 -588t-514.5 -158q-367 0 -515.5 158t-148.5 588v831h402v-835q0 -228 57 -307.5t205 -79.5q147 0 204.5 79.5t57.5 307.5v835h401v-831zM1164 1897q-36 -109 -99 -168t-143 -59q-65 0 -149 52t-103 52q-23 0 -42.5 -23.5t-47.5 -78.5l-147 90
q38 110 99 167.5t140 57.5q64 0 151 -52t103 -52q26 0 43 20t47 82z" />
    <glyph glyph-name="utilde" unicode="&#x169;" horiz-adv-x="1350" 
d="M1231 524q0 -289 -133.5 -423t-421.5 -134q-289 0 -423 133.5t-134 423.5v529h373v-537q0 -139 41 -195.5t137 -56.5q99 0 143.5 59t44.5 193v537h373v-529zM1041 1405q-36 -109 -99 -168t-143 -59q-65 0 -149 52t-103 52q-23 0 -42.5 -23.5t-47.5 -78.5l-147 90
q38 110 99 167.5t140 57.5q64 0 151 -52t103 -52q26 0 43 20t47 82z" />
    <glyph glyph-name="Umacron" unicode="&#x16a;" horiz-adv-x="1593" 
d="M1460 713q0 -430 -148.5 -588t-514.5 -158q-367 0 -515.5 158t-148.5 588v831h402v-835q0 -228 57 -307.5t205 -79.5q147 0 204.5 79.5t57.5 307.5v835h401v-831zM1118 1735h-641v217h641v-217z" />
    <glyph glyph-name="umacron" unicode="&#x16b;" horiz-adv-x="1350" 
d="M1231 524q0 -289 -133.5 -423t-421.5 -134q-289 0 -423 133.5t-134 423.5v529h373v-537q0 -139 41 -195.5t137 -56.5q99 0 143.5 59t44.5 193v537h373v-529zM995 1243h-641v217h641v-217z" />
    <glyph glyph-name="Ubreve" unicode="&#x16c;" horiz-adv-x="1593" 
d="M1460 713q0 -430 -148.5 -588t-514.5 -158q-367 0 -515.5 158t-148.5 588v831h402v-835q0 -228 57 -307.5t205 -79.5q147 0 204.5 79.5t57.5 307.5v835h401v-831zM1137 1995q-39 -158 -120 -231.5t-218 -73.5q-141 0 -229.5 79.5t-110.5 225.5l156 66q19 -78 65.5 -117
t118.5 -39t116 38t64 118z" />
    <glyph glyph-name="ubreve" unicode="&#x16d;" horiz-adv-x="1350" 
d="M1231 524q0 -289 -133.5 -423t-421.5 -134q-289 0 -423 133.5t-134 423.5v529h373v-537q0 -139 41 -195.5t137 -56.5q99 0 143.5 59t44.5 193v537h373v-529zM1014 1503q-39 -158 -120 -231.5t-218 -73.5q-141 0 -229.5 79.5t-110.5 225.5l156 66q19 -78 65.5 -117
t118.5 -39t116 38t64 118z" />
    <glyph glyph-name="Uring" unicode="&#x16e;" horiz-adv-x="1593" 
d="M1460 713q0 -430 -148.5 -588t-514.5 -158q-367 0 -515.5 158t-148.5 588v831h402v-835q0 -228 57 -307.5t205 -79.5q147 0 204.5 79.5t57.5 307.5v835h401v-831zM914 1883q0 43 -31 67.5t-84 24.5q-50 0 -82.5 -26t-32.5 -66q0 -43 30.5 -67t84.5 -24t84.5 24t30.5 67z
M1084 1883q0 -106 -81.5 -174t-203.5 -68q-123 0 -204 67.5t-81 174.5q0 105 82 174t203 69q120 0 202.5 -69.5t82.5 -173.5z" />
    <glyph glyph-name="uring" unicode="&#x16f;" horiz-adv-x="1350" 
d="M1231 524q0 -289 -133.5 -423t-421.5 -134q-289 0 -423 133.5t-134 423.5v529h373v-537q0 -139 41 -195.5t137 -56.5q99 0 143.5 59t44.5 193v537h373v-529zM791 1391q0 43 -31 67.5t-84 24.5q-50 0 -82.5 -26t-32.5 -66q0 -43 30.5 -67t84.5 -24t84.5 24t30.5 67z
M961 1391q0 -106 -81.5 -174t-203.5 -68q-123 0 -204 67.5t-81 174.5q0 105 82 174t203 69q120 0 202.5 -69.5t82.5 -173.5z" />
    <glyph glyph-name="Udblacute" unicode="&#x170;" horiz-adv-x="1593" 
d="M1460 713q0 -430 -148.5 -588t-514.5 -158q-367 0 -515.5 158t-148.5 588v831h402v-835q0 -228 57 -307.5t205 -79.5q147 0 204.5 79.5t57.5 307.5v835h401v-831zM832 1975l-209 -305l-154 82l135 342zM1207 1926l-283 -256l-129 118l217 306z" />
    <glyph glyph-name="udblacute" unicode="&#x171;" horiz-adv-x="1350" 
d="M1231 524q0 -289 -133.5 -423t-421.5 -134q-289 0 -423 133.5t-134 423.5v529h373v-537q0 -139 41 -195.5t137 -56.5q99 0 143.5 59t44.5 193v537h373v-529zM709 1483l-209 -305l-154 82l135 342zM1084 1434l-283 -256l-129 118l217 306z" />
    <glyph glyph-name="Uogonek" unicode="&#x172;" horiz-adv-x="1593" 
d="M1460 713q0 -386 -113.5 -546t-385.5 -192q-58 -62 -85.5 -114.5t-27.5 -98.5q0 -44 33 -61.5t110 -17.5v-215q-213 0 -293 48t-80 177q0 65 35.5 137.5t100.5 136.5q-342 8 -481.5 167t-139.5 579v831h402v-835q0 -228 57 -307.5t205 -79.5q147 0 204.5 79.5t57.5 307.5
v835h401v-831z" />
    <glyph glyph-name="uogonek" unicode="&#x173;" horiz-adv-x="1350" 
d="M1231 524q0 -248 -98 -381.5t-304 -165.5q-57 -61 -85.5 -114.5t-28.5 -100.5q0 -43 32 -61t107 -18v-215q-210 0 -289.5 48.5t-79.5 176.5q0 65 35.5 137.5t100.5 138.5q-261 12 -381.5 145.5t-120.5 409.5v529h373v-537q0 -139 41 -195.5t137 -56.5q99 0 143.5 59
t44.5 193v537h373v-529z" />
    <glyph glyph-name="Wcircumflex" unicode="&#x174;" horiz-adv-x="2288" 
d="M2298 1544l-549 -1544h-338l-266 903l-268 -903h-338l-549 1544h436l293 -973l260 973h330l260 -973l293 973h436zM1497 1817l-94 -147l-258 141l-258 -141l-94 147l352 277z" />
    <glyph glyph-name="wcircumflex" unicode="&#x175;" horiz-adv-x="2040" 
d="M2030 1053l-480 -1053h-282l-236 618l-244 -618h-303l-475 1053h398l256 -621l227 621h270l234 -621l237 621h398zM1372 1325l-94 -147l-258 141l-258 -141l-94 147l352 277z" />
    <glyph glyph-name="Ycircumflex" unicode="&#x176;" horiz-adv-x="1462" 
d="M1468 1544l-538 -846v-698h-398v698l-538 846h479l258 -508l258 508h479zM1083 1817l-94 -147l-258 141l-258 -141l-94 147l352 277z" />
    <glyph glyph-name="ycircumflex" unicode="&#x177;" horiz-adv-x="1339" 
d="M1319 1053l-692 -1585h-416l278 585l-469 1000h414l242 -609l244 609h399zM1036 1325l-94 -147l-258 141l-258 -141l-94 147l352 277z" />
    <glyph glyph-name="Ydieresis" unicode="&#x178;" horiz-adv-x="1462" 
d="M1468 1544l-538 -846v-698h-398v698l-538 846h479l258 -508l258 508h479zM674 1831q0 -68 -46 -114.5t-114 -46.5q-67 0 -114 47t-47 114q0 64 48.5 112t112.5 48q66 0 113 -47t47 -113zM1110 1831q0 -68 -45.5 -114.5t-113.5 -46.5t-115 47t-47 114q0 64 48.5 112
t113.5 48q66 0 112.5 -47t46.5 -113z" />
    <glyph glyph-name="Zacute" unicode="&#x179;" horiz-adv-x="1448" 
d="M1427 1544l-743 -1204h676v-340h-1350l746 1206h-619v338h1290zM1067 1868l-391 -198l-92 141l350 258z" />
    <glyph glyph-name="zacute" unicode="&#x17a;" horiz-adv-x="1145" 
d="M1128 1053l-534 -756h487v-297h-1071l504 756h-438v297h1052zM899 1376l-391 -198l-92 141l350 258z" />
    <glyph glyph-name="Zdot" unicode="&#x17b;" horiz-adv-x="1448" 
d="M1427 1544l-743 -1204h676v-340h-1350l746 1206h-619v338h1290zM915 1831q0 -68 -45.5 -114.5t-113.5 -46.5t-115 47t-47 114q0 64 48.5 112t113.5 48q66 0 112.5 -47t46.5 -113z" />
    <glyph glyph-name="zdot" unicode="&#x17c;" horiz-adv-x="1145" 
d="M1128 1053l-534 -756h487v-297h-1071l504 756h-438v297h1052zM747 1339q0 -68 -45.5 -114.5t-113.5 -46.5t-115 47t-47 114q0 64 48.5 112t113.5 48q66 0 112.5 -47t46.5 -113z" />
    <glyph glyph-name="Zcaron" unicode="&#x17d;" horiz-adv-x="1448" 
d="M1427 1544l-743 -1204h676v-340h-1350l746 1206h-619v338h1290zM1106 1946l-352 -276l-352 276l94 148l258 -142l258 142z" />
    <glyph glyph-name="zcaron" unicode="&#x17e;" horiz-adv-x="1145" 
d="M1128 1053l-534 -756h487v-297h-1071l504 756h-438v297h1052zM938 1454l-352 -276l-352 276l94 148l258 -142l258 142z" />
    <glyph glyph-name="florin" unicode="&#x192;" 
d="M1178 1548l-52 -293q-32 14 -52.5 19.5t-37.5 5.5q-51 0 -78.5 -33t-39.5 -114l-21 -123h188l-43 -258h-190l-82 -496q-60 -365 -161.5 -476.5t-319.5 -111.5q-38 0 -80 5.5t-98 17.5l63 282q18 -4 35 -6t33 -2q126 0 186 363q8 49 12 75l60 349h-195l41 258h197l26 157
q39 232 134 321t282 89q46 0 95.5 -7.5t97.5 -21.5z" />
    <glyph glyph-name="circumflex" unicode="&#x2c6;" horiz-adv-x="1208" 
d="M956 1325l-94 -147l-258 141l-258 -141l-94 147l352 277z" />
    <glyph glyph-name="caron" unicode="&#x2c7;" horiz-adv-x="1208" 
d="M956 1454l-352 -276l-352 276l94 148l258 -142l258 142z" />
    <glyph glyph-name="macron" unicode="&#x2c9;" horiz-adv-x="1235" 
d="M938 1243h-641v217h641v-217z" />
    <glyph glyph-name="breve" unicode="&#x2d8;" horiz-adv-x="1104" 
d="M891 1503q-39 -158 -120 -231.5t-218 -73.5q-141 0 -229.5 79.5t-110.5 225.5l156 66q19 -78 65.5 -117t118.5 -39t116 38t64 118z" />
    <glyph glyph-name="dotaccent" unicode="&#x2d9;" horiz-adv-x="823" 
d="M573 1339q0 -68 -45.5 -114.5t-113.5 -46.5t-115 47t-47 114q0 64 48.5 112t113.5 48q66 0 112.5 -47t46.5 -113z" />
    <glyph glyph-name="ring" unicode="&#x2da;" horiz-adv-x="936" 
d="M584 1391q0 43 -31 67.5t-84 24.5q-50 0 -82.5 -26t-32.5 -66q0 -43 30.5 -67t84.5 -24t84.5 24t30.5 67zM754 1391q0 -106 -81.5 -174t-203.5 -68q-123 0 -204 67.5t-81 174.5q0 105 82 174t203 69q120 0 202.5 -69.5t82.5 -173.5z" />
    <glyph glyph-name="ogonek" unicode="&#x2db;" horiz-adv-x="717" 
d="M561 -532q-213 0 -293 48t-80 177q0 73 45 154.5t125 152.5h195q-68 -68 -101.5 -126.5t-33.5 -111.5q0 -44 33 -61.5t110 -17.5v-215z" />
    <glyph glyph-name="tilde" unicode="&#x2dc;" horiz-adv-x="1124" 
d="M928 1405q-36 -109 -99 -168t-143 -59q-65 0 -149 52t-103 52q-23 0 -42.5 -23.5t-47.5 -78.5l-147 90q38 110 99 167.5t140 57.5q64 0 151 -52t103 -52q26 0 43 20t47 82z" />
    <glyph glyph-name="hungarumlaut" unicode="&#x2dd;" horiz-adv-x="1104" 
d="M586 1483l-209 -305l-154 82l135 342zM961 1434l-283 -256l-129 118l217 306z" />
    <glyph glyph-name="U037e" unicode="&#x37e;" horiz-adv-x="702" 
d="M553 354l-324 -655h-288l223 655h389zM563 877q0 -91 -60.5 -152t-150.5 -61q-89 0 -151 61.5t-62 151.5q0 87 62 147.5t151 60.5q90 0 150.5 -60t60.5 -148z" />
    <glyph glyph-name="tonos" unicode="&#x384;" horiz-adv-x="528" 
d="M375 1608l-27 -434h-168l-26 434h221z" />
    <glyph glyph-name="dieresistonos" unicode="&#x385;" horiz-adv-x="1024" 
d="M352 1335q0 -58 -38.5 -97.5t-96.5 -39.5q-59 0 -98 39t-39 98q0 55 40.5 95t96.5 40q57 0 96 -39t39 -96zM625 1608l-27 -434h-168l-27 434h222zM948 1335q0 -59 -38 -98t-97 -39q-58 0 -97.5 39.5t-39.5 97.5q0 55 40.5 95t96.5 40q57 0 96 -39t39 -96z" />
    <glyph glyph-name="Alphatonos" unicode="&#x386;" horiz-adv-x="2247" 
d="M375 1608l-27 -434h-168l-26 434h221zM1657 571l-207 693l-209 -693h416zM2236 0h-413l-78 274h-594l-80 -274h-414l529 1544h522z" />
    <glyph glyph-name="anoteleia" unicode="&#x387;" horiz-adv-x="702" 
d="M563 756q0 -90 -61.5 -151.5t-151.5 -61.5q-88 0 -149.5 61.5t-61.5 151.5q0 87 61 148t150 61q90 0 151.5 -60.5t61.5 -148.5z" />
    <glyph glyph-name="Epsilontonos" unicode="&#x388;" horiz-adv-x="1655" 
d="M375 1608l-27 -434h-168l-26 434h221zM1554 0h-883v1544h883v-340h-481v-258h461v-328h-461v-278h481v-340z" />
    <glyph glyph-name="Etatonos" unicode="&#x389;" horiz-adv-x="2173" 
d="M375 1608l-27 -434h-168l-26 434h221zM2029 0h-401v618h-555v-618h-402v1544h402v-598h555v598h401v-1544z" />
    <glyph glyph-name="Iotatonos" unicode="&#x38a;" horiz-adv-x="1192" 
d="M375 1608l-27 -434h-168l-26 434h221zM1060 0h-401v1544h401v-1544z" />
    <glyph glyph-name="Omicrontonos" unicode="&#x38c;" horiz-adv-x="2374" 
d="M375 1608l-27 -434h-168l-26 434h221zM1884 770q0 178 -118.5 298t-299.5 120q-185 0 -302.5 -118.5t-117.5 -299.5q0 -178 118.5 -296t301.5 -118q182 0 300 118.5t118 295.5zM2302 770q0 -341 -240.5 -572t-595.5 -231q-356 0 -596.5 231t-240.5 572q0 340 241.5 573.5
t595.5 233.5q355 0 595.5 -233t240.5 -574z" />
    <glyph glyph-name="Upsilontonos" unicode="&#x38e;" horiz-adv-x="1991" 
d="M375 1608l-27 -434h-168l-26 434h221zM1996 1544l-538 -846v-698h-398v698l-538 846h479l258 -508l258 508h479z" />
    <glyph glyph-name="Omegatonos" unicode="&#x38f;" horiz-adv-x="2370" 
d="M375 1608l-27 -434h-168l-26 434h221zM2310 0h-766v340q143 28 230.5 147.5t87.5 282.5q0 185 -109 301.5t-291 116.5q-181 0 -290 -116.5t-109 -301.5q0 -163 87.5 -282.5t229.5 -147.5v-340h-766v340h269q-106 66 -172 196t-66 275q0 336 229.5 551t587.5 215
t587.5 -215t229.5 -551q0 -150 -66 -281.5t-171 -189.5h268v-340z" />
    <glyph glyph-name="iotedieresistonos" unicode="&#x390;" horiz-adv-x="618" 
d="M496 0h-373v1053h373v-1053zM149 1335q0 -58 -38.5 -97.5t-96.5 -39.5q-59 0 -98 39t-39 98q0 55 40.5 95t96.5 40q57 0 96 -39t39 -96zM422 1608l-27 -434h-168l-27 434h222zM745 1335q0 -59 -38 -98t-97 -39q-58 0 -97.5 39.5t-39.5 97.5q0 55 40.5 95t96.5 40
q57 0 96 -39t39 -96z" />
    <glyph glyph-name="Alpha" unicode="&#x391;" horiz-adv-x="1599" 
d="M1010 571l-207 693l-209 -693h416zM1589 0h-413l-78 274h-594l-80 -274h-414l529 1544h522z" />
    <glyph glyph-name="Beta" unicode="&#x392;" horiz-adv-x="1386" 
d="M913 471q0 92 -66 134t-214 42h-96v-354h90q143 0 214.5 44.5t71.5 133.5zM854 1085q0 89 -55 125.5t-207 36.5h-55v-313h49q154 0 211 34t57 117zM1315 436q0 -225 -154.5 -330.5t-587.5 -105.5h-430v1544h435q385 0 527 -93.5t142 -289.5q0 -132 -66.5 -211
t-211.5 -119q162 -12 254 -117t92 -278z" />
    <glyph glyph-name="Gamma" unicode="&#x393;" horiz-adv-x="1014" 
d="M979 1190h-418v-1190h-418v1544h836v-354z" />
    <glyph glyph-name="uni0394" unicode="&#x394;" horiz-adv-x="1599" 
d="M1092 297l-289 967l-291 -967h580zM1589 0h-1579l529 1544h522z" />
    <glyph glyph-name="Epsilon" unicode="&#x395;" horiz-adv-x="1126" 
d="M1026 0h-883v1544h883v-340h-481v-258h461v-328h-461v-278h481v-340z" />
    <glyph glyph-name="Zeta" unicode="&#x396;" horiz-adv-x="1448" 
d="M1427 1544l-743 -1204h676v-340h-1350l746 1206h-619v338h1290z" />
    <glyph glyph-name="Eta" unicode="&#x397;" horiz-adv-x="1645" 
d="M1501 0h-401v618h-555v-618h-402v1544h402v-598h555v598h401v-1544z" />
    <glyph glyph-name="Theta" unicode="&#x398;" horiz-adv-x="1817" 
d="M1145 627h-473v299h473v-299zM1327 770q0 190 -117 314t-301 124q-191 0 -305.5 -121t-114.5 -317q0 -186 118 -310t302 -124q188 0 303 121t115 313zM1745 770q0 -341 -240.5 -572t-595.5 -231q-356 0 -596.5 231t-240.5 572q0 340 241.5 573.5t595.5 233.5
q355 0 595.5 -233t240.5 -574z" />
    <glyph glyph-name="Iota" unicode="&#x399;" horiz-adv-x="664" 
d="M532 0h-401v1544h401v-1544z" />
    <glyph glyph-name="Kappa" unicode="&#x39a;" horiz-adv-x="1552" 
d="M1567 0h-510l-512 721v-721h-402v1544h402v-696l518 696h475l-598 -747z" />
    <glyph glyph-name="Lambda" unicode="&#x39b;" horiz-adv-x="1559" 
d="M1569 0h-436l-355 973l-352 -973h-436l631 1544h317z" />
    <glyph glyph-name="Mu" unicode="&#x39c;" horiz-adv-x="2013" 
d="M1946 0h-400q-41 303 -77 564q-23 174 -50 380q-44 -154 -86 -299l-188 -645h-277l-187 645q-43 145 -87 299q-29 -206 -33.5 -239t-95.5 -705h-397l235 1544h422l283 -971l280 971h422z" />
    <glyph glyph-name="Nu" unicode="&#x39d;" horiz-adv-x="1804" 
d="M1661 0h-401l-715 958v-958h-402v1544h404l713 -960v960h401v-1544z" />
    <glyph glyph-name="Xi" unicode="&#x39e;" horiz-adv-x="1126" 
d="M1026 0h-926v340h926v-340zM1006 618h-885v328h885v-328zM1026 1204h-926v340h926v-340z" />
    <glyph glyph-name="Omicron" unicode="&#x39f;" horiz-adv-x="1817" 
d="M1327 770q0 178 -118.5 298t-299.5 120q-185 0 -302.5 -118.5t-117.5 -299.5q0 -178 118.5 -296t301.5 -118q182 0 300 118.5t118 295.5zM1745 770q0 -341 -240.5 -572t-595.5 -231q-356 0 -596.5 231t-240.5 572q0 340 241.5 573.5t595.5 233.5q355 0 595.5 -233
t240.5 -574z" />
    <glyph glyph-name="Pi" unicode="&#x3a0;" horiz-adv-x="1645" 
d="M1501 0h-401v1217h-555v-1217h-402v1544h1358v-1544z" />
    <glyph glyph-name="Rho" unicode="&#x3a1;" horiz-adv-x="1354" 
d="M864 1024q0 101 -61.5 147t-202.5 46h-55v-383h51q146 0 207 44t61 146zM1282 1018q0 -254 -170 -383t-502 -129h-65v-506h-402v1544h449q357 0 523.5 -129.5t166.5 -396.5z" />
    <glyph glyph-name="Sigma" unicode="&#x3a3;" horiz-adv-x="1448" 
d="M1360 0h-1350l502 778l-479 766h1306v-338h-634l270 -428l-291 -438h676v-340z" />
    <glyph glyph-name="Tau" unicode="&#x3a4;" horiz-adv-x="1092" 
d="M1061 1190h-313v-1190h-402v1190h-315v354h1030v-354z" />
    <glyph glyph-name="Upsilon" unicode="&#x3a5;" horiz-adv-x="1462" 
d="M1468 1544l-538 -846v-698h-398v698l-538 846h479l258 -508l258 508h479z" />
    <glyph glyph-name="Phi" unicode="&#x3a6;" horiz-adv-x="1917" 
d="M758 502v561q-138 0 -211.5 -74.5t-73.5 -208.5q0 -130 74.5 -204t210.5 -74zM1444 780q0 134 -73.5 208.5t-211.5 74.5v-561q136 0 210.5 74t74.5 204zM1845 780q0 -273 -185 -439.5t-501 -166.5v-174h-401v174q-316 0 -501 166.5t-185 439.5q0 282 186 446.5t500 164.5
v153h401v-153q314 0 500 -164.5t186 -446.5z" />
    <glyph glyph-name="Chi" unicode="&#x3a7;" horiz-adv-x="1616" 
d="M1602 0h-482l-311 514l-334 -514h-461l547 817l-493 727h462l279 -428l278 428h482l-533 -735z" />
    <glyph glyph-name="Psi" unicode="&#x3a8;" horiz-adv-x="1913" 
d="M1800 1040q0 -440 -142 -592.5t-501 -152.5v-295h-401v295q-359 0 -501 152.5t-142 592.5v504h401v-508q0 -243 51.5 -315t190.5 -72v895h401v-895q139 0 190.5 72t51.5 315v508h401v-504z" />
    <glyph glyph-name="uni03A9" unicode="&#x3a9;" horiz-adv-x="1817" 
d="M1757 0h-766v340q143 28 230.5 147.5t87.5 282.5q0 185 -109 301.5t-291 116.5q-181 0 -290 -116.5t-109 -301.5q0 -163 87.5 -282.5t229.5 -147.5v-340h-766v340h269q-106 66 -172 196t-66 275q0 336 229.5 551t587.5 215t587.5 -215t229.5 -551q0 -150 -66 -281.5
t-171 -189.5h268v-340z" />
    <glyph glyph-name="Iotadieresis" unicode="&#x3aa;" horiz-adv-x="664" 
d="M532 0h-401v1544h401v-1544zM274 1831q0 -68 -46 -114.5t-114 -46.5q-69 0 -115 46t-46 115q0 64 48 112t113 48q66 0 113 -47t47 -113zM710 1831q0 -68 -45.5 -114.5t-113.5 -46.5q-69 0 -115.5 46t-46.5 115q0 65 48.5 112.5t113.5 47.5q66 0 112.5 -47t46.5 -113z" />
    <glyph glyph-name="Upsilondieresis" unicode="&#x3ab;" horiz-adv-x="1462" 
d="M1468 1544l-538 -846v-698h-398v698l-538 846h479l258 -508l258 508h479zM674 1831q0 -68 -46 -114.5t-114 -46.5q-69 0 -115 46t-46 115q0 64 48 112t113 48q66 0 113 -47t47 -113zM1110 1831q0 -68 -45.5 -114.5t-113.5 -46.5q-69 0 -115.5 46t-46.5 115
q0 65 48.5 112.5t113.5 47.5q66 0 112.5 -47t46.5 -113z" />
    <glyph glyph-name="alphatonos" unicode="&#x3ac;" horiz-adv-x="1397" 
d="M901 524q0 125 -58 194.5t-157 69.5q-101 0 -163 -71t-62 -193q0 -120 60.5 -190t164.5 -70q97 0 156 71.5t59 188.5zM1268 0h-367v143q-56 -93 -140.5 -134.5t-215.5 -41.5q-212 0 -342.5 153t-130.5 404q0 260 131 410.5t354 150.5q117 0 200.5 -43t143.5 -133v144h367
v-1053zM809 1608l-27 -434h-168l-26 434h221z" />
    <glyph glyph-name="epsilontonos" unicode="&#x3ad;" horiz-adv-x="891" 
d="M799 41q-65 -39 -128.5 -56.5t-142.5 -17.5q-205 0 -325.5 85t-120.5 224q0 99 56 173.5t155 103.5q-103 25 -157 88.5t-54 159.5q0 138 115.5 211t334.5 73q78 0 145.5 -16.5t121.5 -48.5v-293q-37 43 -92.5 67.5t-114.5 24.5q-56 0 -88.5 -27t-32.5 -71q0 -51 33 -79
t96 -28v-122q-58 0 -93.5 -36t-35.5 -94q0 -55 36 -86.5t93 -31.5q53 0 108 22t91 60v-285zM557 1608l-27 -434h-168l-26 434h221z" />
    <glyph glyph-name="etatonos" unicode="&#x3ae;" horiz-adv-x="1354" 
d="M1235 -532h-373v1079q0 134 -36 187.5t-124 53.5q-102 0 -151 -88.5t-49 -273.5v-426h-373v1053h373v-176q71 115 151 161.5t205 46.5q202 0 289.5 -114t87.5 -371v-1132zM789 1608l-27 -434h-168l-26 434h221z" />
    <glyph glyph-name="iotatonos" unicode="&#x3af;" horiz-adv-x="618" 
d="M496 0h-373v1053h373v-1053zM420 1608l-27 -434h-168l-26 434h221z" />
    <glyph glyph-name="upsilondieresistonos" unicode="&#x3b0;" horiz-adv-x="1350" 
d="M1231 524q0 -289 -133.5 -423t-421.5 -134q-289 0 -423 133.5t-134 423.5v529h373v-537q0 -139 41 -195.5t137 -56.5q99 0 143.5 59t44.5 193v537h373v-529zM516 1335q0 -58 -38.5 -97.5t-96.5 -39.5q-59 0 -98 39t-39 98q0 55 40.5 95t96.5 40q57 0 96 -39t39 -96z
M789 1608l-27 -434h-168l-27 434h222zM1112 1335q0 -59 -38 -98t-97 -39q-58 0 -97.5 39.5t-39.5 97.5q0 55 40.5 95t96.5 40q57 0 96 -39t39 -96z" />
    <glyph glyph-name="alpha" unicode="&#x3b1;" horiz-adv-x="1397" 
d="M901 524q0 125 -58 194.5t-157 69.5q-101 0 -163 -71t-62 -193q0 -120 60.5 -190t164.5 -70q97 0 156 71.5t59 188.5zM1268 0h-367v143q-56 -93 -140.5 -134.5t-215.5 -41.5q-212 0 -342.5 153t-130.5 404q0 260 131 410.5t354 150.5q117 0 200.5 -43t143.5 -133v144h367
v-1053z" />
    <glyph glyph-name="beta" unicode="&#x3b2;" horiz-adv-x="1374" 
d="M913 498q0 115 -83.5 186.5t-217.5 71.5h-18v297h14q115 0 169 49t54 155q0 69 -43 113.5t-110 44.5q-88 0 -125 -58t-37 -198v-678q0 -103 49 -160t133 -57q95 0 155 63.5t60 170.5zM1303 494q0 -253 -144 -390t-411 -137q-80 0 -139 24t-93 70v-593h-373v1683
q0 295 121.5 430t388.5 135q245 0 380.5 -120t135.5 -328q0 -136 -69 -231t-191 -122q169 -17 281.5 -134.5t112.5 -286.5z" />
    <glyph glyph-name="gamma" unicode="&#x3b3;" horiz-adv-x="1276" 
d="M1262 1053l-437 -959v-626h-372v614l-439 971h410l223 -580l217 580h398z" />
    <glyph glyph-name="delta" unicode="&#x3b4;" horiz-adv-x="1356" 
d="M895 526q0 100 -62 168t-155 68q-98 0 -157.5 -68t-59.5 -168q0 -107 58.5 -171t158.5 -64q96 0 156.5 64t60.5 171zM1284 526q0 -240 -171.5 -399.5t-434.5 -159.5q-266 0 -436 159t-170 400q0 180 111 319t292 183q-75 43 -120.5 134.5t-45.5 187.5q0 165 134 252.5
t393 87.5h149v-297h-149q-78 0 -116 -21.5t-38 -64.5q0 -67 48 -117.5t171 -124.5q209 -126 296 -248.5t87 -290.5z" />
    <glyph glyph-name="epsilon" unicode="&#x3b5;" horiz-adv-x="891" 
d="M799 41q-65 -39 -128.5 -56.5t-142.5 -17.5q-205 0 -325.5 85t-120.5 224q0 99 56 173.5t155 103.5q-103 25 -157 88.5t-54 159.5q0 138 115.5 211t334.5 73q78 0 145.5 -16.5t121.5 -48.5v-293q-37 43 -92.5 67.5t-114.5 24.5q-56 0 -88.5 -27t-32.5 -71q0 -51 33 -79
t96 -28v-122q-58 0 -93.5 -36t-35.5 -94q0 -55 36 -86.5t93 -31.5q53 0 108 22t91 60v-285z" />
    <glyph glyph-name="zeta" unicode="&#x3b6;" horiz-adv-x="1124" 
d="M1073 -49q0 -133 -63.5 -232t-200.5 -182l-170 201q39 28 64.5 69.5t25.5 79.5q0 57 -39.5 85t-118.5 28q-256 0 -372.5 119.5t-116.5 386.5q0 209 139 461t338 426h-385v297h848v-174q-223 -174 -387 -450t-164 -538q0 -114 51.5 -159t175.5 -45q171 0 273 -103
t102 -270z" />
    <glyph glyph-name="eta" unicode="&#x3b7;" horiz-adv-x="1354" 
d="M1235 -532h-373v1079q0 134 -36 187.5t-124 53.5q-102 0 -151 -88.5t-49 -273.5v-426h-373v1053h373v-176q71 115 151 161.5t205 46.5q202 0 289.5 -114t87.5 -371v-1132z" />
    <glyph glyph-name="theta" unicode="&#x3b8;" 
d="M921 725h-437q2 -211 60.5 -327.5t160.5 -116.5t158 114t58 330zM921 981q-4 194 -63 308t-153 114q-99 0 -159 -113.5t-62 -308.5h437zM1323 831q0 -392 -170.5 -628t-447.5 -236q-280 0 -451.5 239.5t-171.5 639.5q0 398 170.5 634t452.5 236q283 0 450.5 -237.5
t167.5 -647.5z" />
    <glyph glyph-name="iota" unicode="&#x3b9;" horiz-adv-x="618" 
d="M496 0h-373v1053h373v-1053z" />
    <glyph glyph-name="kappa" unicode="&#x3ba;" horiz-adv-x="1409" 
d="M1391 0h-492l-397 469v-469h-373v1053h373v-457l383 457h463l-476 -504z" />
    <glyph glyph-name="lambda" unicode="&#x3bb;" horiz-adv-x="1339" 
d="M1319 0h-399l-244 608l-242 -608h-414l469 999l-325 691h416z" />
    <glyph glyph-name="mu" unicode="&#x3bc;" horiz-adv-x="1364" 
d="M1235 0h-373v94q-19 -67 -62 -97t-118 -30q-77 0 -122.5 32t-57.5 95v-626h-373v1585h373v-447q0 -192 40.5 -267t139.5 -75t139.5 75t40.5 267v447h373v-1053z" />
    <glyph glyph-name="nu" unicode="&#x3bd;" horiz-adv-x="1276" 
d="M1262 1053l-480 -1053h-293l-475 1053h410l223 -580l217 580h398z" />
    <glyph glyph-name="xi" unicode="&#x3be;" horiz-adv-x="1032" 
d="M991 -61q0 -124 -63.5 -224.5t-190.5 -177.5l-170 201q39 28 64.5 69.5t25.5 79.5q0 50 -31.5 81.5t-84.5 31.5q-223 0 -346 132.5t-123 373.5q0 147 95.5 275.5t233.5 164.5q-77 37 -115 101.5t-38 158.5q0 51 22 107.5t54 79.5h-211v297h786v-297h-70
q-108 0 -165.5 -44t-57.5 -126q0 -93 53.5 -131.5t169.5 -38.5h50v-297h-179q-111 0 -175 -62t-64 -166q0 -107 50 -171t136 -64q153 0 248.5 -96.5t95.5 -257.5z" />
    <glyph glyph-name="omicron" unicode="&#x3bf;" horiz-adv-x="1356" 
d="M895 526q0 100 -62 168t-155 68q-98 0 -157.5 -68t-59.5 -168q0 -107 58.5 -171t158.5 -64q96 0 156.5 64t60.5 171zM1284 526q0 -240 -171.5 -399.5t-434.5 -159.5q-266 0 -436 159t-170 400q0 237 174 398t432 161q264 0 435 -156.5t171 -402.5z" />
    <glyph glyph-name="glyph378" unicode="&#x3c0;" horiz-adv-x="1354" 
d="M1225 0h-373v756h-350v-756h-373v1053h1096v-1053z" />
    <glyph glyph-name="rho" unicode="&#x3c1;" horiz-adv-x="1386" 
d="M926 524q0 122 -62 193t-164 71q-99 0 -157 -69.5t-58 -194.5q0 -117 59.5 -188.5t155.5 -71.5q104 0 165 70t61 190zM1315 524q0 -251 -130.5 -404t-342.5 -153q-147 0 -227 39.5t-130 136.5v-675h-366v1058q0 245 168 402t436 157q279 0 435.5 -148t156.5 -413z" />
    <glyph glyph-name="sigma1" unicode="&#x3c2;" horiz-adv-x="1032" 
d="M991 -61q0 -136 -59 -228t-195 -174l-170 201q39 28 64.5 69.5t25.5 79.5q0 50 -31.5 81.5t-84.5 31.5q-219 0 -344 140.5t-125 385.5q0 248 154 403.5t415 155.5q77 0 144.5 -16.5t121.5 -48.5v-350q-37 43 -92.5 67.5t-114.5 24.5q-110 0 -174.5 -64.5t-64.5 -169.5
q0 -118 46.5 -176.5t139.5 -58.5q153 0 248.5 -96.5t95.5 -257.5z" />
    <glyph glyph-name="sigma" unicode="&#x3c3;" horiz-adv-x="1356" 
d="M895 526q0 100 -62 168t-155 68q-98 0 -157.5 -68t-59.5 -168q0 -107 58.5 -171t158.5 -64q96 0 156.5 64t60.5 171zM1356 756h-180q48 -39 78 -113t30 -158q0 -232 -167.5 -375t-438.5 -143q-266 0 -436 159t-170 400q0 237 174 398t432 161q55 0 110 -8t109 -24h459
v-297z" />
    <glyph glyph-name="tau" unicode="&#x3c4;" horiz-adv-x="950" 
d="M930 756h-268v-756h-373v756h-269v297h910v-297z" />
    <glyph glyph-name="upsilon" unicode="&#x3c5;" horiz-adv-x="1350" 
d="M1231 524q0 -289 -133.5 -423t-421.5 -134q-289 0 -423 133.5t-134 423.5v529h373v-537q0 -139 41 -195.5t137 -56.5q99 0 143.5 59t44.5 193v537h373v-529z" />
    <glyph glyph-name="phi" unicode="&#x3c6;" horiz-adv-x="1761" 
d="M1317 526q0 98 -59 164t-158 66h-33v-459h33q101 0 159 61.5t58 167.5zM1690 526q0 -239 -159 -382.5t-427 -143.5h-37v-532h-373v532h-37q-268 0 -426.5 143.5t-158.5 382.5q0 214 156 370.5t388 156.5v-297q-69 0 -120.5 -69t-51.5 -161q0 -106 58.5 -167.5
t159.5 -61.5h32v756h348q297 0 472.5 -143.5t175.5 -383.5z" />
    <glyph glyph-name="chi" unicode="&#x3c7;" horiz-adv-x="1212" 
d="M1233 -532h-416l-217 497l-215 -497h-416l443 835l-410 750h416l192 -426l174 426h416l-399 -766z" />
    <glyph glyph-name="psi" unicode="&#x3c8;" horiz-adv-x="1724" 
d="M1606 598q0 -307 -131 -452.5t-406 -145.5h-20v-532h-373v532h-21q-274 0 -405 145.5t-131 452.5v455h373v-484q0 -145 42.5 -208.5t135.5 -63.5h6v756h373v-756h6q93 0 135.5 63.5t42.5 208.5v484h373v-455z" />
    <glyph glyph-name="omega" unicode="&#x3c9;" horiz-adv-x="1716" 
d="M1645 524q0 -251 -130.5 -404t-343.5 -153q-134 0 -215.5 63t-97.5 175q-15 -112 -97 -175t-216 -63q-212 0 -342.5 153t-130.5 404q0 256 159.5 408.5t417.5 152.5v-297q-81 0 -134.5 -73t-53.5 -191q0 -131 30 -195.5t93 -64.5q61 0 86.5 57.5t25.5 202.5v135h324v-135
q0 -145 26 -202.5t87 -57.5q62 0 92 64.5t30 195.5q0 118 -53.5 191t-134.5 73v297q259 0 418.5 -152.5t159.5 -408.5z" />
    <glyph glyph-name="iotadieresis" unicode="&#x3ca;" horiz-adv-x="618" 
d="M496 0h-373v1053h373v-1053zM252 1339q0 -68 -46 -114.5t-114 -46.5q-69 0 -115 46t-46 115q0 64 48 112t113 48q66 0 113 -47t47 -113zM688 1339q0 -68 -45.5 -114.5t-113.5 -46.5q-69 0 -115.5 46t-46.5 115q0 65 48.5 112.5t113.5 47.5q66 0 112.5 -47t46.5 -113z" />
    <glyph glyph-name="upsilondieresis" unicode="&#x3cb;" horiz-adv-x="1350" 
d="M1231 524q0 -289 -133.5 -423t-421.5 -134q-289 0 -423 133.5t-134 423.5v529h373v-537q0 -139 41 -195.5t137 -56.5q99 0 143.5 59t44.5 193v537h373v-529zM618 1339q0 -68 -46 -114.5t-114 -46.5q-69 0 -115 46t-46 115q0 64 48 112t113 48q66 0 113 -47t47 -113z
M1054 1339q0 -68 -45.5 -114.5t-113.5 -46.5q-69 0 -115.5 46t-46.5 115q0 65 48.5 112.5t113.5 47.5q66 0 112.5 -47t46.5 -113z" />
    <glyph glyph-name="omicrontonos" unicode="&#x3cc;" horiz-adv-x="1356" 
d="M895 526q0 100 -62 168t-155 68q-98 0 -157.5 -68t-59.5 -168q0 -107 58.5 -171t158.5 -64q96 0 156.5 64t60.5 171zM1284 526q0 -240 -171.5 -399.5t-434.5 -159.5q-266 0 -436 159t-170 400q0 237 174 398t432 161q264 0 435 -156.5t171 -402.5zM789 1608l-27 -434
h-168l-26 434h221z" />
    <glyph glyph-name="upsilontonos" unicode="&#x3cd;" horiz-adv-x="1350" 
d="M1231 524q0 -289 -133.5 -423t-421.5 -134q-289 0 -423 133.5t-134 423.5v529h373v-537q0 -139 41 -195.5t137 -56.5q99 0 143.5 59t44.5 193v537h373v-529zM787 1608l-27 -434h-168l-26 434h221z" />
    <glyph glyph-name="omegatonos" unicode="&#x3ce;" horiz-adv-x="1716" 
d="M1645 524q0 -251 -130.5 -404t-343.5 -153q-134 0 -215.5 63t-97.5 175q-15 -112 -97 -175t-216 -63q-212 0 -342.5 153t-130.5 404q0 256 159.5 408.5t417.5 152.5v-297q-81 0 -134.5 -73t-53.5 -191q0 -131 30 -195.5t93 -64.5q61 0 86.5 57.5t25.5 202.5v135h324v-135
q0 -145 26 -202.5t87 -57.5q62 0 92 64.5t30 195.5q0 118 -53.5 191t-134.5 73v297q259 0 418.5 -152.5t159.5 -408.5zM969 1608l-27 -434h-168l-26 434h221z" />
    <glyph glyph-name="afii10023" unicode="&#x401;" horiz-adv-x="1126" 
d="M1026 0h-883v1544h883v-340h-481v-258h461v-328h-461v-278h481v-340zM506 1810q0 -68 -46 -114.5t-114 -46.5q-67 0 -114.5 47t-47.5 114q0 64 49 112t113 48q66 0 113 -47t47 -113zM942 1810q0 -68 -46 -114.5t-114 -46.5q-67 0 -114 47t-47 114q0 64 48.5 112t112.5 48
q66 0 113 -47t47 -113z" />
    <glyph glyph-name="afii10051" unicode="&#x402;" horiz-adv-x="1741" 
d="M1669 541q0 -291 -157.5 -432.5t-479.5 -141.5v355q110 0 164.5 51t54.5 153q0 95 -69 150t-193 55q-85 0 -155 -21.5t-107 -58.5v-651h-401v1202h-316v342h1030v-342h-313v-182q31 22 134.5 43.5t168.5 21.5q305 0 472 -145t167 -399z" />
    <glyph glyph-name="afii10052" unicode="&#x403;" horiz-adv-x="993" 
d="M979 1190h-434v-1190h-402v1544h836v-354zM811 1868l-391 -198l-92 141l350 258z" />
    <glyph glyph-name="afii10053" unicode="&#x404;" horiz-adv-x="1352" 
d="M1270 63q-74 -47 -178.5 -71.5t-231.5 -24.5q-340 0 -564 228t-224 575t224.5 577t563.5 230q130 0 233 -24t177 -72v-416q-70 78 -166.5 121t-200.5 43q-136 0 -238.5 -75.5t-146.5 -207.5h539v-348h-543q43 -133 145.5 -208t243.5 -75q101 0 199.5 43.5t167.5 120.5
v-416z" />
    <glyph glyph-name="afii10054" unicode="&#x405;" horiz-adv-x="1262" 
d="M1176 487q0 -237 -164 -378.5t-437 -141.5q-160 0 -289 53.5t-255 172.5l188 290q85 -96 174 -142t191 -46q84 0 137 44t53 114q0 76 -48.5 118.5t-209.5 83.5q-215 56 -315.5 163.5t-100.5 281.5q0 214 147.5 345.5t387.5 131.5q129 0 242 -34t213 -103l-132 -310
q-68 58 -143.5 88.5t-150.5 30.5q-80 0 -127.5 -31.5t-47.5 -84.5q0 -103 227 -162q15 -4 23 -6q233 -62 335 -175t102 -303z" />
    <glyph glyph-name="afii10055" unicode="&#x406;" horiz-adv-x="664" 
d="M532 0h-401v1544h401v-1544z" />
    <glyph glyph-name="afii10056" unicode="&#x407;" horiz-adv-x="664" 
d="M532 0h-401v1544h401v-1544zM274 1810q0 -68 -45.5 -114.5t-113.5 -46.5t-115 47t-47 114q0 64 48.5 112t113.5 48q66 0 112.5 -47t46.5 -113zM711 1810q0 -68 -46 -114.5t-114 -46.5t-115 47t-47 114q0 64 49 112t113 48q66 0 113 -47t47 -113z" />
    <glyph glyph-name="afii10057" unicode="&#x408;" horiz-adv-x="1001" 
d="M858 541q0 -284 -120 -429t-357 -145q-158 0 -266.5 59.5t-163.5 176.5l256 231q14 -48 48 -80t75 -32q81 0 104 70t23 278v874h401v-1003z" />
    <glyph glyph-name="afii10058" unicode="&#x409;" horiz-adv-x="2171" 
d="M1698 526q0 97 -66 163.5t-162 66.5h-141v-459h141q101 0 164.5 62t63.5 167zM2099 526q0 -234 -168 -380t-438 -146h-565v1217h-338v-697q0 -324 -127.5 -438.5t-452.5 -114.5v355q119 0 148.5 48t29.5 259v915h1141v-491h164q272 0 439 -143.5t167 -383.5z" />
    <glyph glyph-name="afii10059" unicode="&#x40a;" horiz-adv-x="2202" 
d="M1729 526q0 97 -66 163.5t-162 66.5h-141v-459h141q100 0 164 62t64 167zM2130 526q0 -234 -168 -380t-438 -146h-566v618h-413v-618h-402v1544h402v-598h413v598h402v-491h164q272 0 439 -143.5t167 -383.5z" />
    <glyph glyph-name="afii10060" unicode="&#x40b;" horiz-adv-x="1765" 
d="M1653 0h-402v344q0 227 -57 307t-205 80q-85 0 -155 -21.5t-107 -58.5v-651h-401v1202h-316v342h1030v-342h-313v-182q33 24 130 44.5t173 20.5q335 0 479 -170.5t144 -574.5v-340z" />
    <glyph glyph-name="afii10061" unicode="&#x40c;" horiz-adv-x="1552" 
d="M1567 0h-510l-512 721v-721h-402v1544h402v-696l518 696h475l-598 -747zM1090 1868l-391 -198l-92 141l350 258z" />
    <glyph glyph-name="afii10062" unicode="&#x40e;" horiz-adv-x="1397" 
d="M1417 1544l-776 -1544h-432l336 672l-555 872h479l258 -508l258 508h432zM1079 1944q-36 -136 -132 -205t-247 -69q-152 0 -250 70t-131 204l197 55q19 -77 65.5 -116t118.5 -39t116 38t64 117z" />
    <glyph glyph-name="afii10145" unicode="&#x40f;" horiz-adv-x="1645" 
d="M1501 0h-477v-328h-401v328h-480v1544h402v-1216h555v1216h401v-1544z" />
    <glyph glyph-name="afii10017" unicode="&#x410;" horiz-adv-x="1599" 
d="M1010 571l-207 693l-209 -693h416zM1589 0h-413l-78 274h-594l-80 -274h-414l529 1544h522z" />
    <glyph glyph-name="afii10018" unicode="&#x411;" horiz-adv-x="1386" 
d="M913 526q0 97 -66 163.5t-161 66.5h-141v-459h141q100 0 163.5 62t63.5 167zM1315 526q0 -234 -168.5 -380t-437.5 -146h-566v1544h897v-297h-495v-194h164q272 0 439 -143.5t167 -383.5z" />
    <glyph glyph-name="afii10019" unicode="&#x412;" horiz-adv-x="1386" 
d="M913 471q0 92 -66 134t-214 42h-96v-354h90q143 0 214.5 44.5t71.5 133.5zM854 1085q0 89 -55 125.5t-207 36.5h-55v-313h49q154 0 211 34t57 117zM1315 436q0 -233 -159 -334.5t-527 -101.5h-486v1544h435q385 0 527 -93.5t142 -289.5q0 -132 -66.5 -211t-211.5 -119
q162 -12 254 -117t92 -278z" />
    <glyph glyph-name="afii10020" unicode="&#x413;" horiz-adv-x="993" 
d="M979 1190h-434v-1190h-402v1544h836v-354z" />
    <glyph glyph-name="afii10021" unicode="&#x414;" horiz-adv-x="1671" 
d="M1100 328v889h-510v-691q0 -58 -10.5 -114t-26.5 -84h547zM1661 -328h-373v328h-905v-328h-373v656q119 0 148.5 48t29.5 259v909h1313v-1216h160v-656z" />
    <glyph glyph-name="afii10022" unicode="&#x415;" horiz-adv-x="1126" 
d="M1026 0h-883v1544h883v-340h-481v-258h461v-328h-461v-278h481v-340z" />
    <glyph glyph-name="afii10024" unicode="&#x416;" horiz-adv-x="2417" 
d="M2431 0h-510l-512 721v-721h-401v721l-512 -721h-510l626 797l-598 747h475l519 -696v696h401v-696l518 696h475l-598 -747z" />
    <glyph glyph-name="afii10025" unicode="&#x417;" horiz-adv-x="1174" 
d="M1102 424q0 -220 -161 -338.5t-449 -118.5q-127 0 -232 24.5t-178 71.5v416q69 -77 167 -120.5t200 -43.5q127 0 181 33t54 109q0 72 -58 106.5t-177 34.5h-80v348h80q95 0 143.5 38.5t48.5 113.5q0 62 -50 96.5t-142 34.5q-99 0 -186 -41t-161 -123v416q78 50 166 73
t207 23q284 0 425.5 -103t141.5 -311q0 -138 -73 -231t-213 -131q167 -31 256.5 -130.5t89.5 -246.5z" />
    <glyph glyph-name="afii10026" unicode="&#x418;" horiz-adv-x="1804" 
d="M1661 0h-401v958l-715 -958h-402v1544h402v-960l712 960h404v-1544z" />
    <glyph glyph-name="afii10027" unicode="&#x419;" horiz-adv-x="1804" 
d="M1661 0h-401v958l-715 -958h-402v1544h402v-960l712 960h404v-1544zM1282 1923q-36 -136 -131.5 -205t-247.5 -69q-151 0 -249 70t-132 204l197 55q20 -77 66 -116t118 -39t116.5 38t63.5 117z" />
    <glyph glyph-name="afii10028" unicode="&#x41a;" horiz-adv-x="1552" 
d="M1567 0h-510l-512 721v-721h-402v1544h402v-696l518 696h475l-598 -747z" />
    <glyph glyph-name="afii10029" unicode="&#x41b;" horiz-adv-x="1645" 
d="M1501 0h-401v1217h-510v-697q0 -324 -127.5 -438.5t-452.5 -114.5v355q119 0 148.5 48t29.5 259v915h1313v-1544z" />
    <glyph glyph-name="afii10030" unicode="&#x41c;" horiz-adv-x="2013" 
d="M1946 0h-400q-41 303 -77 564q-23 174 -50 380q-44 -154 -86 -299l-188 -645h-277l-187 645q-43 145 -87 299q-29 -206 -33.5 -239t-95.5 -705h-397l235 1544h422l283 -971l280 971h422z" />
    <glyph glyph-name="afii10031" unicode="&#x41d;" horiz-adv-x="1645" 
d="M1501 0h-401v618h-555v-618h-402v1544h402v-598h555v598h401v-1544z" />
    <glyph glyph-name="afii10032" unicode="&#x41e;" horiz-adv-x="1817" 
d="M1327 770q0 178 -118.5 298t-299.5 120q-185 0 -302.5 -118.5t-117.5 -299.5q0 -178 118.5 -296t301.5 -118q182 0 300 118.5t118 295.5zM1745 770q0 -341 -240.5 -572t-595.5 -231q-356 0 -596.5 231t-240.5 572q0 340 241.5 573.5t595.5 233.5q355 0 595.5 -233
t240.5 -574z" />
    <glyph glyph-name="afii10033" unicode="&#x41f;" horiz-adv-x="1645" 
d="M1501 0h-401v1217h-555v-1217h-402v1544h1358v-1544z" />
    <glyph glyph-name="afii10034" unicode="&#x420;" horiz-adv-x="1354" 
d="M864 1024q0 101 -61.5 147t-202.5 46h-55v-383h51q146 0 207 44t61 146zM1282 1018q0 -254 -170 -383t-502 -129h-65v-506h-402v1544h449q357 0 523.5 -129.5t166.5 -396.5z" />
    <glyph glyph-name="afii10035" unicode="&#x421;" horiz-adv-x="1352" 
d="M1270 63q-74 -47 -178.5 -71.5t-231.5 -24.5q-340 0 -564 228t-224 575t224.5 577t563.5 230q130 0 233 -24t177 -72v-457q-70 78 -166.5 121t-200.5 43q-185 0 -299.5 -117.5t-114.5 -308.5q0 -178 116 -292t298 -114q101 0 199.5 43.5t167.5 120.5v-457z" />
    <glyph glyph-name="afii10036" unicode="&#x422;" horiz-adv-x="1092" 
d="M1061 1190h-313v-1190h-402v1190h-315v354h1030v-354z" />
    <glyph glyph-name="afii10037" unicode="&#x423;" horiz-adv-x="1397" 
d="M1417 1544l-776 -1544h-432l336 672l-555 872h479l258 -508l258 508h432z" />
    <glyph glyph-name="afii10038" unicode="&#x424;" horiz-adv-x="1917" 
d="M758 502v561q-138 0 -211.5 -74.5t-73.5 -208.5q0 -130 74.5 -204t210.5 -74zM1444 780q0 134 -73.5 208.5t-211.5 74.5v-561q136 0 210.5 74t74.5 204zM1845 780q0 -273 -185 -439.5t-501 -166.5v-174h-401v174q-316 0 -501 166.5t-185 439.5q0 282 186 446.5t500 164.5
v153h401v-153q314 0 500 -164.5t186 -446.5z" />
    <glyph glyph-name="afii10039" unicode="&#x425;" horiz-adv-x="1616" 
d="M1602 0h-482l-311 514l-334 -514h-461l547 817l-493 727h462l279 -428l278 428h482l-533 -735z" />
    <glyph glyph-name="afii10040" unicode="&#x426;" horiz-adv-x="1671" 
d="M1661 -328h-373v328h-1145v1544h402v-1216h555v1216h401v-1216h160v-656z" />
    <glyph glyph-name="afii10041" unicode="&#x427;" horiz-adv-x="1573" 
d="M1440 0h-402v545q-43 -25 -120.5 -45.5t-141.5 -20.5q-367 0 -515 158t-148 588v319h401v-323q0 -228 57.5 -307.5t204.5 -79.5q86 0 156 21.5t106 57.5v631h402v-1544z" />
    <glyph glyph-name="afii10042" unicode="&#x428;" horiz-adv-x="2363" 
d="M2220 0h-2077v1544h402v-1216h436v1216h401v-1216h437v1216h401v-1544z" />
    <glyph glyph-name="afii10043" unicode="&#x429;" horiz-adv-x="2390" 
d="M2380 -328h-373v328h-1864v1544h402v-1216h436v1216h401v-1216h437v1216h401v-1216h160v-656z" />
    <glyph glyph-name="afii10044" unicode="&#x42a;" horiz-adv-x="1565" 
d="M1092 526q0 97 -66 163.5t-162 66.5h-141v-459h141q100 0 164 62t64 167zM1493 526q0 -234 -168 -380t-438 -146h-565v1190h-312v354h713v-491h164q272 0 439 -143.5t167 -383.5z" />
    <glyph glyph-name="afii10045" unicode="&#x42b;" horiz-adv-x="2064" 
d="M913 526q0 97 -66 163.5t-161 66.5h-141v-459h141q100 0 163.5 62t63.5 167zM1315 526q0 -234 -168.5 -380t-437.5 -146h-566v1544h402v-491h164q272 0 439 -143.5t167 -383.5zM1921 0h-401v1544h401v-1544z" />
    <glyph glyph-name="afii10046" unicode="&#x42c;" horiz-adv-x="1386" 
d="M913 526q0 97 -66 163.5t-161 66.5h-141v-459h141q100 0 163.5 62t63.5 167zM1315 526q0 -234 -168.5 -380t-437.5 -146h-566v1544h402v-491h164q272 0 439 -143.5t167 -383.5z" />
    <glyph glyph-name="afii10047" unicode="&#x42d;" horiz-adv-x="1352" 
d="M1280 770q0 -347 -224.5 -575t-563.5 -228q-127 0 -232 24.5t-178 71.5v416q69 -77 167 -120.5t200 -43.5q141 0 243 75t146 208h-543v348h539q-45 132 -147 207.5t-238 75.5q-104 0 -200.5 -43t-166.5 -121v416q74 48 177 72t233 24q339 0 563.5 -230t224.5 -577z" />
    <glyph glyph-name="afii10048" unicode="&#x42e;" horiz-adv-x="2488" 
d="M1999 770q0 178 -112 298t-283 120q-175 0 -286.5 -118.5t-111.5 -299.5q0 -179 112 -296.5t286 -117.5q172 0 283.5 118t111.5 296zM2417 770q0 -341 -234 -572t-579 -231q-304 0 -527 182t-274 469h-258v-618h-402v1544h402v-598h262q60 280 281 455.5t516 175.5
q345 0 579 -233t234 -574z" />
    <glyph glyph-name="afii10049" unicode="&#x42f;" horiz-adv-x="1393" 
d="M848 807v410h-80q-137 0 -194.5 -49.5t-57.5 -163.5q0 -101 63 -149t195 -48h74zM1249 0h-401v600l-354 -600h-474l422 616q-167 36 -255.5 148.5t-88.5 290.5q0 254 152.5 371.5t527.5 117.5h471v-1544z" />
    <glyph glyph-name="afii10065" unicode="&#x430;" horiz-adv-x="1397" 
d="M901 524q0 125 -58 194.5t-157 69.5q-101 0 -163 -71t-62 -193q0 -120 60.5 -190t164.5 -70q97 0 156 71.5t59 188.5zM1268 0h-367v143q-56 -93 -140.5 -134.5t-215.5 -41.5q-212 0 -342.5 153t-130.5 404q0 260 131 410.5t354 150.5q117 0 200.5 -43t143.5 -133v144h367
v-1053z" />
    <glyph glyph-name="afii10066" unicode="&#x431;" horiz-adv-x="1356" 
d="M895 526q0 100 -62 168t-155 68q-98 0 -157.5 -68t-59.5 -168q0 -107 58.5 -171t158.5 -64q96 0 156.5 64t60.5 171zM1284 526q0 -240 -171.5 -399.5t-434.5 -159.5q-272 0 -439 171t-167 450q0 618 352 808.5t352 293.5h297q0 -219 -98 -337t-311 -190
q-109 -37 -160 -73t-51 -76q48 34 123 52.5t163 18.5q244 0 394.5 -153.5t150.5 -405.5z" />
    <glyph glyph-name="afii10067" unicode="&#x432;" horiz-adv-x="1096" 
d="M641 332q0 53 -33 80.5t-96 27.5h-16v-215h16q63 0 96 27t33 80zM641 741q0 41 -31.5 63.5t-89.5 22.5h-24v-182h16q65 0 97 24t32 72zM1014 293q0 -144 -103 -218.5t-303 -74.5h-485v1053h481q202 0 295.5 -64.5t93.5 -204.5q0 -90 -48.5 -149t-141.5 -82
q101 -29 156 -97t55 -163z" />
    <glyph glyph-name="afii10068" unicode="&#x433;" horiz-adv-x="854" 
d="M844 756h-342v-756h-373v1053h715v-297z" />
    <glyph glyph-name="afii10069" unicode="&#x434;" 
d="M887 297v459h-361v-215q0 -86 -4.5 -144t-13.5 -100h379zM1419 -328h-372v328h-664v-328h-373v625q96 0 120 53t24 248v455h1106v-756h159v-625z" />
    <glyph glyph-name="afii10070" unicode="&#x435;" horiz-adv-x="1249" 
d="M819 660q-10 93 -63 146.5t-135 53.5q-83 0 -136 -57.5t-55 -142.5h389zM1178 455h-748q0 -108 58.5 -170t154.5 -62q60 0 117.5 32.5t83.5 86.5l280 -113q-76 -142 -190 -202t-297 -60q-270 0 -417.5 145t-147.5 404q0 254 150 411.5t401 157.5q259 0 407 -163t148 -451
v-16z" />
    <glyph glyph-name="afii10072" unicode="&#x436;" horiz-adv-x="2187" 
d="M2169 0h-492l-397 469v-469h-373v469l-397 -469h-492l519 549l-476 504h463l383 -457v457h373v-457l383 457h463l-475 -504z" />
    <glyph glyph-name="afii10073" unicode="&#x437;" horiz-adv-x="891" 
d="M809 276q0 -139 -120.5 -224t-326.5 -85q-78 0 -141.5 17.5t-128.5 56.5v285q36 -38 91 -60t108 -22q57 0 93 31.5t36 86.5q0 58 -35.5 94t-93.5 36v122q63 0 96 28t33 79q0 44 -33 71t-88 27q-59 0 -114.5 -24.5t-92.5 -67.5v293q54 32 121.5 48.5t144.5 16.5
q220 0 335.5 -73t115.5 -211q0 -96 -54 -159.5t-157 -88.5q98 -29 154.5 -103.5t56.5 -173.5z" />
    <glyph glyph-name="afii10074" unicode="&#x438;" horiz-adv-x="1364" 
d="M1235 0h-373v510l-381 -510h-352v1053h373v-510l381 510h352v-1053z" />
    <glyph glyph-name="afii10075" unicode="&#x439;" horiz-adv-x="1364" 
d="M1235 0h-373v510l-381 -510h-352v1053h373v-510l381 510h352v-1053zM1063 1452q-36 -136 -132 -205t-247 -69q-152 0 -249.5 70t-131.5 204l197 55q19 -77 65.5 -116t118.5 -39t116 38t64 117z" />
    <glyph glyph-name="afii10076" unicode="&#x43a;" horiz-adv-x="1409" 
d="M1391 0h-492l-397 469v-469h-373v1053h373v-457l383 457h463l-476 -504z" />
    <glyph glyph-name="afii10077" unicode="&#x43b;" horiz-adv-x="1389" 
d="M1260 0h-373v756h-361v-215q0 -353 -113 -463.5t-403 -110.5v324q94 0 119 54t25 253v455h1106v-1053z" />
    <glyph glyph-name="afii10078" unicode="&#x43c;" horiz-adv-x="1700" 
d="M1638 0h-372l-86 616l-144 -616h-372l-144 616l-86 -616h-373l158 1053h492l139 -594l139 594h492z" />
    <glyph glyph-name="afii10079" unicode="&#x43d;" horiz-adv-x="1364" 
d="M1235 0h-373v395h-360v-395h-373v1053h373v-361h360v361h373v-1053z" />
    <glyph glyph-name="afii10080" unicode="&#x43e;" horiz-adv-x="1356" 
d="M895 526q0 100 -62 168t-155 68q-98 0 -157.5 -68t-59.5 -168q0 -107 58.5 -171t158.5 -64q96 0 156.5 64t60.5 171zM1284 526q0 -240 -171.5 -399.5t-434.5 -159.5q-266 0 -436 159t-170 400q0 237 174 398t432 161q264 0 435 -156.5t171 -402.5z" />
    <glyph glyph-name="afii10081" unicode="&#x43f;" horiz-adv-x="1364" 
d="M1235 0h-373v756h-360v-756h-373v1053h1106v-1053z" />
    <glyph glyph-name="afii10082" unicode="&#x440;" horiz-adv-x="1397" 
d="M936 524q0 122 -62 193t-163 71q-99 0 -157 -69.5t-58 -194.5q0 -117 59 -188.5t156 -71.5q104 0 164.5 70t60.5 190zM1325 524q0 -251 -130.5 -404t-342.5 -153q-147 0 -227 39.5t-129 136.5v-675h-367v1585h367v-144q60 90 143.5 133t200.5 43q223 0 354 -150.5
t131 -410.5z" />
    <glyph glyph-name="afii10083" unicode="&#x441;" horiz-adv-x="989" 
d="M907 41q-65 -39 -128 -56.5t-142 -17.5q-261 0 -413 150.5t-152 408.5q0 248 154 403.5t415 155.5q77 0 144.5 -16.5t121.5 -48.5v-350q-37 43 -92.5 67.5t-114.5 24.5q-110 0 -174.5 -64.5t-64.5 -169.5q0 -115 63.5 -176t184.5 -61q48 0 103.5 25.5t94.5 66.5v-342z
" />
    <glyph glyph-name="afii10084" unicode="&#x442;" horiz-adv-x="803" 
d="M793 756h-205v-756h-373v756h-205v297h783v-297z" />
    <glyph glyph-name="afii10085" unicode="&#x443;" horiz-adv-x="1339" 
d="M1319 1053l-692 -1585h-416l278 585l-469 1000h414l242 -609l244 609h399z" />
    <glyph glyph-name="afii10086" unicode="&#x444;" horiz-adv-x="1761" 
d="M694 297v459h-32q-99 0 -158.5 -66t-59.5 -164q0 -106 58.5 -167.5t159.5 -61.5h32zM1317 526q0 98 -59 164t-158 66h-33v-459h33q101 0 159 61.5t58 167.5zM1690 526q0 -239 -159 -382.5t-427 -143.5h-37v-532h-373v532h-37q-268 0 -426.5 143.5t-158.5 382.5
q0 234 162.5 380.5t422.5 146.5h37v637h373v-637h37q260 0 423 -146.5t163 -380.5z" />
    <glyph glyph-name="afii10087" unicode="&#x445;" horiz-adv-x="1458" 
d="M1436 0h-441l-270 340l-270 -340h-432l475 555l-416 498h428l211 -277l213 277h442l-424 -498z" />
    <glyph glyph-name="afii10088" unicode="&#x446;" 
d="M1395 -328h-373v328h-893v1053h373v-756h360v756h373v-756h160v-625z" />
    <glyph glyph-name="afii10089" unicode="&#x447;" horiz-adv-x="1343" 
d="M1214 0h-372v442q-71 -52 -162.5 -79t-194.5 -27q-202 0 -289 114.5t-87 370.5v232h372v-179q0 -134 36.5 -187.5t123.5 -53.5q58 0 114 15.5t87 39.5v365h372v-1053z" />
    <glyph glyph-name="afii10090" unicode="&#x448;" horiz-adv-x="2036" 
d="M1907 0h-1778v1053h373v-756h329v756h373v-756h330v756h373v-1053z" />
    <glyph glyph-name="afii10091" unicode="&#x449;" horiz-adv-x="2077" 
d="M2066 -328h-372v328h-1565v1053h373v-756h329v756h373v-756h330v756h373v-756h159v-625z" />
    <glyph glyph-name="afii10092" unicode="&#x44a;" horiz-adv-x="1280" 
d="M836 395q0 56 -36 87.5t-93 31.5h-37v-238h37q57 0 93 32t36 87zM1208 395q0 -187 -123 -291t-344 -104h-444v756h-287v297h660v-262h71q221 0 344 -104.5t123 -291.5z" />
    <glyph glyph-name="afii10093" unicode="&#x44b;" horiz-adv-x="1704" 
d="M662 395q0 56 -36 87.5t-94 31.5h-36v-238h36q58 0 94 32t36 87zM1034 395q0 -187 -123 -291t-344 -104h-444v1053h373v-262h71q221 0 344 -104.5t123 -291.5zM1581 0h-373v1053h373v-1053z" />
    <glyph glyph-name="afii10094" unicode="&#x44c;" horiz-adv-x="1106" 
d="M662 395q0 56 -36 87.5t-94 31.5h-36v-238h36q58 0 94 32t36 87zM1034 395q0 -187 -123 -291t-344 -104h-444v1053h373v-262h71q221 0 344 -104.5t123 -291.5z" />
    <glyph glyph-name="afii10095" unicode="&#x44d;" horiz-adv-x="989" 
d="M918 526q0 -258 -152.5 -408.5t-413.5 -150.5q-79 0 -142 17.5t-128 56.5v301q39 -40 94.5 -66t104.5 -26q103 0 168.5 42t82.5 122h-319v225h317q-17 76 -82 120t-159 44q-59 0 -114.5 -24.5t-92.5 -67.5v309q54 32 121.5 48.5t144.5 16.5q262 0 416 -155.5t154 -403.5z
" />
    <glyph glyph-name="afii10096" unicode="&#x44e;" horiz-adv-x="1913" 
d="M1468 526q0 100 -62 168t-155 68q-98 0 -157.5 -68t-59.5 -168q0 -107 59 -171t158 -64q97 0 157 64t60 171zM1841 526q0 -243 -164.5 -401t-425.5 -158q-221 0 -373 115.5t-198 312.5h-178v-395h-373v1053h373v-361h190q59 182 208.5 287.5t350.5 105.5q262 0 426 -155
t164 -404z" />
    <glyph glyph-name="afii10097" unicode="&#x44f;" horiz-adv-x="1153" 
d="M651 549v278h-35q-93 0 -132.5 -33.5t-39.5 -111.5q0 -68 43 -100.5t134 -32.5h30zM1024 0h-373v408l-221 -408h-422l307 420q-117 25 -180 102t-63 195q0 174 121.5 255t379.5 81h451v-1053z" />
    <glyph glyph-name="afii10071" unicode="&#x451;" horiz-adv-x="1249" 
d="M819 660q-10 93 -63 146.5t-135 53.5q-83 0 -136 -57.5t-55 -142.5h389zM1178 455h-748q0 -108 58.5 -170t154.5 -62q60 0 117.5 32.5t83.5 86.5l280 -113q-76 -142 -190 -202t-297 -60q-270 0 -417.5 145t-147.5 404q0 254 150 411.5t401 157.5q259 0 407 -163t148 -451
v-16zM567 1339q0 -68 -46 -114.5t-113 -46.5q-68 0 -115 47t-47 114q0 64 48.5 112t113.5 48q66 0 112.5 -47t46.5 -113zM1004 1339q0 -68 -46 -114.5t-114 -46.5t-115 47t-47 114q0 64 49 112t113 48q66 0 113 -47t47 -113z" />
    <glyph glyph-name="afii10099" unicode="&#x452;" horiz-adv-x="1354" 
d="M1235 20q0 -340 -119 -456.5t-418 -116.5v324q104 0 134 62.5t30 244.5v469q0 134 -36 187.5t-124 53.5q-104 0 -152 -87.5t-48 -274.5v-426h-373v1274h-129v221h129v195h373v-195h340v-221h-340v-397q71 115 151 161.5t205 46.5q202 0 289.5 -114t87.5 -371v-580z" />
    <glyph glyph-name="afii10100" unicode="&#x453;" horiz-adv-x="854" 
d="M844 756h-342v-756h-373v1053h715v-297zM741 1376l-391 -198l-92 141l350 258z" />
    <glyph glyph-name="afii10101" unicode="&#x454;" horiz-adv-x="989" 
d="M907 41q-65 -39 -128 -56.5t-142 -17.5q-261 0 -413 150.5t-152 408.5q0 248 154 403.5t415 155.5q77 0 144.5 -16.5t121.5 -48.5v-309q-37 43 -92.5 67.5t-114.5 24.5q-93 0 -158.5 -44t-82.5 -120h317v-225h-319q17 -80 82.5 -122t169.5 -42q48 0 103.5 26t94.5 66
v-301z" />
    <glyph glyph-name="afii10102" unicode="&#x455;" horiz-adv-x="1051" 
d="M993 322q0 -162 -123 -258.5t-331 -96.5q-138 0 -256.5 32t-225.5 97l78 285q79 -70 178 -109t199 -39q69 0 99 19t30 61q0 73 -143 107q-43 10 -68 16q-165 43 -242 119.5t-77 196.5q0 152 115 242.5t313 90.5q114 0 216 -23t206 -73l-76 -256q-70 48 -151 75.5
t-154 27.5q-65 0 -97 -18.5t-32 -55.5q0 -56 148 -95q60 -15 95 -26q160 -49 229.5 -124t69.5 -195z" />
    <glyph glyph-name="afii10103" unicode="&#x456;" horiz-adv-x="618" 
d="M496 0h-373v1053h373v-1053zM514 1372q0 -85 -60.5 -147t-144.5 -62q-83 0 -144 62.5t-61 146.5t60.5 144.5t144.5 60.5q85 0 145 -59.5t60 -145.5z" />
    <glyph glyph-name="afii10104" unicode="&#x457;" horiz-adv-x="618" 
d="M496 0h-373v1053h373v-1053zM252 1339q0 -68 -46 -114.5t-114 -46.5q-67 0 -114.5 47t-47.5 114q0 64 49 112t113 48q66 0 113 -47t47 -113zM688 1339q0 -68 -46 -114.5t-114 -46.5q-67 0 -114 47t-47 114q0 64 48.5 112t112.5 48q66 0 113 -47t47 -113z" />
    <glyph glyph-name="afii10105" unicode="&#x458;" horiz-adv-x="618" 
d="M496 -532h-373v1585h373v-1585zM514 1372q0 -85 -60.5 -147t-144.5 -62q-83 0 -144 62.5t-61 146.5t60.5 144.5t144.5 60.5q85 0 145 -59.5t60 -145.5z" />
    <glyph glyph-name="afii10106" unicode="&#x459;" horiz-adv-x="1720" 
d="M1276 395q0 56 -36 87.5t-93 31.5h-37v-238h37q57 0 93 32t36 87zM1649 395q0 -187 -123.5 -291t-343.5 -104h-445v395h-235v-395h-373v1053h373v-361h235v361h373v-262h72q220 0 343.5 -104.5t123.5 -291.5z" />
    <glyph glyph-name="afii10107" unicode="&#x45a;" horiz-adv-x="1720" 
d="M1276 395q0 56 -36 87.5t-93 31.5h-37v-238h37q57 0 93 32t36 87zM1649 395q0 -187 -123.5 -291t-343.5 -104h-445v756h-211v-215q0 -353 -113 -463.5t-403 -110.5v324q94 0 119 54t25 253v455h956v-262h72q220 0 343.5 -104.5t123.5 -291.5z" />
    <glyph glyph-name="afii10108" unicode="&#x45b;" horiz-adv-x="1354" 
d="M1235 0h-373v547q0 134 -36 187.5t-124 53.5q-104 0 -152 -87.5t-48 -274.5v-426h-373v1274h-129v221h129v195h373v-195h340v-221h-340v-397q71 115 151 161.5t205 46.5q202 0 289.5 -114t87.5 -371v-600z" />
    <glyph glyph-name="afii10109" unicode="&#x45c;" horiz-adv-x="1409" 
d="M1391 0h-492l-397 469v-469h-373v1053h373v-457l383 457h463l-476 -504zM1018 1376l-391 -198l-92 141l350 258z" />
    <glyph glyph-name="afii10110" unicode="&#x45e;" horiz-adv-x="1339" 
d="M1319 1053l-692 -1585h-416l278 585l-469 1000h414l242 -609l244 609h399zM1051 1452q-36 -136 -132 -205t-247 -69q-152 0 -250 70t-131 204l197 55q19 -77 65.5 -116t118.5 -39t116 38t64 117z" />
    <glyph glyph-name="afii10193" unicode="&#x45f;" horiz-adv-x="1364" 
d="M1235 0h-367v-328h-372v328h-367v1053h373v-756h360v756h373v-1053z" />
    <glyph glyph-name="afii10050" unicode="&#x490;" horiz-adv-x="993" 
d="M979 1190h-434v-1190h-402v1544h463v225h373v-579z" />
    <glyph glyph-name="afii10098" unicode="&#x491;" horiz-adv-x="854" 
d="M844 756h-342v-756h-373v1053h342v327h373v-624z" />
    <glyph glyph-name="Wdieresis" unicode="&#x1e84;" horiz-adv-x="2288" 
d="M2298 1544l-549 -1544h-338l-266 903l-268 -903h-338l-549 1544h436l293 -973l260 973h330l260 -973l293 973h436zM1087 1831q0 -68 -46 -114.5t-114 -46.5q-67 0 -114 47t-47 114q0 64 48.5 112t112.5 48q66 0 113 -47t47 -113zM1523 1831q0 -68 -45.5 -114.5
t-113.5 -46.5t-115 47t-47 114q0 64 48.5 112t113.5 48q66 0 112.5 -47t46.5 -113z" />
    <glyph glyph-name="wdieresis" unicode="&#x1e85;" horiz-adv-x="2040" 
d="M2030 1053l-480 -1053h-282l-236 618l-244 -618h-303l-475 1053h398l256 -621l227 621h270l234 -621l237 621h398zM962 1339q0 -68 -46 -114.5t-114 -46.5q-67 0 -114 47t-47 114q0 64 48.5 112t112.5 48q66 0 113 -47t47 -113zM1398 1339q0 -68 -45.5 -114.5
t-113.5 -46.5t-115 47t-47 114q0 64 48.5 112t113.5 48q66 0 112.5 -47t46.5 -113z" />
    <glyph glyph-name="Ygrave" unicode="&#x1ef2;" horiz-adv-x="1462" 
d="M1468 1544l-538 -846v-698h-398v698l-538 846h479l258 -508l258 508h479zM901 1811l-93 -141l-391 198l133 201z" />
    <glyph glyph-name="ygrave" unicode="&#x1ef3;" horiz-adv-x="1339" 
d="M1319 1053l-692 -1585h-416l278 585l-469 1000h414l242 -609l244 609h399zM854 1319l-93 -141l-391 198l133 201z" />
    <glyph glyph-name="enspace" unicode="&#x2002;" horiz-adv-x="1024" 
 />
    <glyph glyph-name="emspace" unicode="&#x2003;" horiz-adv-x="2048" 
 />
    <glyph glyph-name="thinspace" unicode="&#x2009;" horiz-adv-x="705" 
 />
    <glyph glyph-name="endash" unicode="&#x2013;" horiz-adv-x="1024" 
d="M1024 383h-1024v285h1024v-285z" />
    <glyph glyph-name="emdash" unicode="&#x2014;" horiz-adv-x="2048" 
d="M1843 383h-1638v285h1638v-285z" />
    <glyph glyph-name="longdash" unicode="&#x2015;" horiz-adv-x="2048" 
d="M1843 383h-1638v285h1638v-285z" />
    <glyph glyph-name="quoteleft" unicode="&#x2018;" horiz-adv-x="762" 
d="M682 1544l-221 -655h-391l323 655h289z" />
    <glyph glyph-name="quoteright" unicode="&#x2019;" horiz-adv-x="762" 
d="M692 1544l-323 -655h-289l221 655h391z" />
    <glyph glyph-name="quotesinglbase" unicode="&#x201a;" horiz-adv-x="692" 
d="M602 358l-323 -655h-289l221 655h391z" />
    <glyph glyph-name="quotedblleft" unicode="&#x201c;" horiz-adv-x="1286" 
d="M682 1544l-221 -655h-391l323 655h289zM1206 1544l-221 -655h-391l324 655h288z" />
    <glyph glyph-name="quotedblright" unicode="&#x201d;" horiz-adv-x="1286" 
d="M682 1544l-324 -655h-288l221 655h391zM1206 1544l-323 -655h-289l221 655h391z" />
    <glyph glyph-name="quotedblbase" unicode="&#x201e;" horiz-adv-x="1217" 
d="M602 358l-323 -655h-289l221 655h391zM1126 358l-323 -655h-289l221 655h391z" />
    <glyph glyph-name="dagger" unicode="&#x2020;" 
d="M1268 678h-396v-1108h-340v1108h-395v328h395v538h340v-538h396v-328z" />
    <glyph glyph-name="daggerdbl" unicode="&#x2021;" 
d="M1274 27h-402v-457h-340v457h-401v333h401v416h-401v322h401v446h340v-446h402v-322h-402v-416h402v-333z" />
    <glyph glyph-name="bullet" unicode="&#x2022;" 
d="M1008 807q0 -127 -89.5 -216t-216.5 -89q-126 0 -215.5 89t-89.5 216t89 216t216 89t216.5 -89t89.5 -216z" />
    <glyph glyph-name="ellipsis" unicode="&#x2026;" horiz-adv-x="2048" 
d="M553 180q0 -90 -61.5 -151.5t-151.5 -61.5q-89 0 -150 62t-61 151q0 88 61 148.5t150 60.5q90 0 151.5 -60t61.5 -149zM1237 180q0 -90 -61.5 -151.5t-151.5 -61.5q-89 0 -150 62t-61 151q0 88 61 148.5t150 60.5q90 0 151.5 -60t61.5 -149zM1921 180q0 -90 -61.5 -151.5
t-151.5 -61.5q-89 0 -150 62t-61 151q0 88 61 148.5t150 60.5q90 0 151.5 -60t61.5 -149z" />
    <glyph glyph-name="perthousand" unicode="&#x2030;" horiz-adv-x="2990" 
d="M668 1176q0 77 -52.5 131.5t-128.5 54.5q-75 0 -127.5 -54.5t-52.5 -131.5q0 -78 52.5 -132.5t127.5 -54.5q76 0 128.5 54.5t52.5 132.5zM1690 369q0 78 -52.5 132t-128.5 54q-75 0 -127.5 -54t-52.5 -132t52.5 -132.5t127.5 -54.5q76 0 128.5 54.5t52.5 132.5zM2648 369
q0 78 -52 132t-128 54t-128 -54t-52 -132t52 -132.5t128 -54.5t128 54.5t52 132.5zM893 1176q0 -166 -119 -284t-287 -118q-167 0 -286 118t-119 284q0 165 119 283t286 118q168 0 287 -118t119 -283zM1548 1577l-925 -1610h-197l926 1610h196zM1915 369q0 -166 -119 -284
t-287 -118q-167 0 -286 118t-119 284q0 165 119 283t286 118q168 0 287 -118t119 -283zM2873 369q0 -166 -119 -284t-286 -118q-168 0 -287 118t-119 284q0 165 119 283t287 118q167 0 286 -118t119 -283z" />
    <glyph glyph-name="guilsinglleft" unicode="&#x2039;" horiz-adv-x="725" 
d="M643 154l-201 -140l-374 510l374 512l201 -145l-276 -367z" />
    <glyph glyph-name="guilsinglright" unicode="&#x203a;" horiz-adv-x="725" 
d="M657 524l-376 -510l-199 140l274 370l-274 367l199 145z" />
    <glyph glyph-name="fraction" unicode="&#x2044;" horiz-adv-x="397" 
d="M760 1577l-926 -1610h-196l925 1610h197z" />
    <glyph glyph-name="franc" unicode="&#x20a3;" horiz-adv-x="2038" 
d="M1042 1217h-497v-271h467v-328h-467v-618h-402v1544h899v-327zM2038 1079l-38 -364q-40 11 -70 15.5t-58 4.5q-132 0 -197 -79.5t-65 -239.5v-416h-371v1053h371v-203q57 120 136.5 177.5t184.5 57.5q20 0 46.5 -1.5t60.5 -4.5z" />
    <glyph glyph-name="afii61352" unicode="&#x2116;" horiz-adv-x="2720" 
d="M2372 692q0 71 -42.5 119.5t-107.5 48.5q-68 0 -108.5 -48.5t-40.5 -119.5q0 -76 40 -121t109 -45q68 0 109 45t41 121zM1661 0h-401l-715 958v-958h-402v1544h404l713 -960v960h401v-1544zM2615 0h-786v205h786v-205zM2648 692q0 -168 -120.5 -279.5t-305.5 -111.5
q-186 0 -306 111.5t-120 279.5q0 166 123 279.5t303 113.5q185 0 305.5 -110.5t120.5 -282.5z" />
    <glyph glyph-name="trademark" unicode="&#x2122;" horiz-adv-x="1925" 
d="M756 1329h-238v-635h-266v635h-238v215h742v-215zM1876 694h-256v527l-219 -527h-107l-223 529v-529h-256v850h346l187 -434l182 434h346v-850z" />
    <glyph glyph-name="Omega" unicode="&#x2126;" horiz-adv-x="1645" 
d="M1266 307h333v-307h-636v352q92 82 142 196.5t50 246.5q0 182 -90 288.5t-244 106.5q-153 0 -243.5 -107.5t-90.5 -289.5q0 -132 50 -246.5t143 -194.5v-352h-635v307h332q-132 95 -200 229.5t-68 299.5q0 303 195.5 489t516.5 186q323 0 518 -185t195 -490
q0 -165 -68 -299.5t-200 -229.5z" />
    <glyph glyph-name="partialdiff" unicode="&#x2202;" horiz-adv-x="1114" 
d="M766 684q21 113 32 206t11 150q0 87 -29.5 148t-68.5 61q-35 0 -132 -93t-180 -93q-48 0 -80 33.5t-32 83.5q0 69 93 125.5t220 56.5q210 0 332.5 -161t122.5 -441q0 -344 -162.5 -564.5t-417.5 -220.5q-182 0 -299 116.5t-117 299.5q0 203 119.5 336t298.5 133
q101 0 170.5 -42.5t118.5 -133.5zM698 532q0 114 -36.5 176t-104.5 62q-96 0 -160.5 -136.5t-64.5 -346.5q0 -116 36.5 -176t106.5 -60q97 0 160 135.5t63 345.5z" />
    <glyph glyph-name="Delta" unicode="&#x2206;" horiz-adv-x="1468" 
d="M733 1059l-262 -774h526zM537 1473h395l541 -1473h-1475z" />
    <glyph glyph-name="product" unicode="&#x220f;" horiz-adv-x="1645" 
d="M145 1473h1348v-1866h-399v1532h-549v-1532h-400v1866z" />
    <glyph glyph-name="summation" unicode="&#x2211;" horiz-adv-x="1520" 
d="M72 1473h1335v-302h-838l596 -608l-587 -651h895v-305h-1424v184l684 756l-661 665v261z" />
    <glyph glyph-name="minus" unicode="&#x2212;" 
d="M1329 516h-1253v246h1253v-246z" />
    <glyph glyph-name="U2215" unicode="&#x2215;" horiz-adv-x="397" 
d="M760 1577l-926 -1610h-196l925 1610h197z" />
    <glyph glyph-name="periodcenter" unicode="&#x2219;" horiz-adv-x="702" 
d="M563 756q0 -90 -61.5 -151.5t-151.5 -61.5q-88 0 -149.5 61.5t-61.5 151.5q0 87 61 148t150 61q90 0 151.5 -60.5t61.5 -148.5z" />
    <glyph glyph-name="radical" unicode="&#x221a;" horiz-adv-x="1366" 
d="M1155 1714h215v-149h-96l-590 -1606h-119l-307 846l-145 -55l-37 129l360 127l223 -635z" />
    <glyph glyph-name="infinity" unicode="&#x221e;" horiz-adv-x="1706" 
d="M956 561q43 -67 102 -101t132 -34q90 0 146.5 50.5t56.5 129.5q0 77 -51.5 127.5t-127.5 50.5q-72 0 -131.5 -50.5t-126.5 -172.5zM752 657q-43 67 -101 100.5t-133 33.5q-90 0 -146.5 -50t-56.5 -129q0 -77 51 -127.5t128 -50.5q71 0 132 52.5t126 170.5zM856 442
q-68 -130 -147.5 -193t-176.5 -63q-139 0 -238 121.5t-99 300.5q0 188 87.5 305t227.5 117q90 0 166.5 -56.5t175.5 -199.5q71 132 150 195t174 63q140 0 238.5 -121t98.5 -301q0 -189 -87.5 -306.5t-227.5 -117.5q-91 0 -166 55t-176 201z" />
    <glyph glyph-name="integral" unicode="&#x222b;" horiz-adv-x="1249" 
d="M362 -248q99 0 119 667q3 101 4 154q17 523 130.5 753t349.5 230q105 0 170 -53t65 -137q0 -64 -41 -103.5t-106 -39.5q-64 0 -96.5 38.5t-32.5 112.5q0 38 -7.5 49t-25.5 11q-101 0 -124 -667q-2 -60 -3 -91q-11 -329 -30.5 -472.5t-57.5 -244.5q-62 -166 -159.5 -249
t-229.5 -83q-107 0 -171.5 52t-64.5 139q0 65 42 104t112 39q60 0 92.5 -36t32.5 -103q0 -12 -2 -24v-3q0 -24 8 -33.5t26 -9.5z" />
    <glyph glyph-name="approxequal" unicode="&#x2248;" horiz-adv-x="1706" 
d="M1530 602v-254q-105 -71 -196 -104t-181 -33t-283 65.5t-309 65.5q-82 0 -172.5 -37t-210.5 -121v254q111 74 209 109t195 35q115 0 304.5 -65.5t272.5 -65.5t170 35t201 116zM1530 1036v-254q-107 -70 -197 -102.5t-178 -32.5q-91 0 -284 64.5t-310 64.5q-84 0 -172 -36
t-211 -122v256q112 74 209 108t195 34q115 0 304.5 -65.5t272.5 -65.5t170.5 35.5t200.5 115.5z" />
    <glyph glyph-name="notequal" unicode="&#x2260;" horiz-adv-x="1706" 
d="M1194 1251l168 -137l-135 -168h225v-221h-377l-180 -227h557v-222h-704l-246 -307l-170 137l135 170h-213v222h360l183 227h-543v221h694z" />
    <glyph glyph-name="lessequal" unicode="&#x2264;" horiz-adv-x="1706" 
d="M256 213h1196v-229h-1196v229zM1450 1257v-239l-776 -240l776 -239v-240l-1194 379v201z" />
    <glyph glyph-name="greaterequal" unicode="&#x2265;" horiz-adv-x="1706" 
d="M256 213h1196v-229h-1196v229zM258 1257l1192 -378v-201l-1192 -379v240l776 239l-776 240v239z" />
    <glyph glyph-name="lozenge" unicode="&#x25ca;" horiz-adv-x="1012" 
d="M506 1409l-385 -817l385 -825l385 825zM506 1653l500 -1061l-500 -1069l-500 1069z" />
    <glyph glyph-name="commaaccent" unicode="&#xf004;" horiz-adv-x="778" 
d="M614 -199l-323 -354l-137 109l256 397z" />
    <glyph glyph-name="fi" unicode="&#xfb01;" horiz-adv-x="1391" 
d="M754 756h-207v-756h-373v756h-123v297h123v252q0 201 107.5 306t314.5 105q31 0 72.5 -4.5t85.5 -13.5v-297q-24 8 -48.5 13t-41.5 5q-58 0 -87.5 -33.5t-29.5 -99.5v-233h207v-297zM1280 0h-373v1053h373v-1053zM1298 1372q0 -85 -60.5 -147t-143.5 -62
q-84 0 -144.5 62.5t-60.5 146.5t60.5 144.5t144.5 60.5q85 0 144.5 -59.5t59.5 -145.5z" />
    <glyph glyph-name="fl" unicode="&#xfb02;" horiz-adv-x="1413" 
d="M754 756h-207v-756h-373v756h-123v297h123v252q0 201 107.5 306t314.5 105q31 0 72.5 -4.5t85.5 -13.5v-297q-24 8 -48.5 13t-41.5 5q-58 0 -87.5 -33.5t-29.5 -99.5v-233h207v-297zM1290 0h-372v1690h372v-1690z" />
    <glyph glyph-name="pi" horiz-adv-x="1530" 
d="M1538 1090l-39 -232h-178l-135 -858h-357l134 858h-232l-135 -858h-354l133 858h-27q-42 0 -70.5 -35.5t-36.5 -97.5h-235q33 209 124.5 287t311.5 78h1096z" />
    <glyph glyph-name="c640" horiz-adv-x="618" 
d="M496 0h-373v1053h373v-1053zM471 1339q0 -68 -45.5 -114.5t-113.5 -46.5t-115 47t-47 114q0 64 48.5 112t113.5 48q66 0 112.5 -47t46.5 -113z" />
    <glyph glyph-name="c8074" horiz-adv-x="762" 
d="M692 1544l-323 -655h-289l221 655h391z" />
    <glyph glyph-name="c6464" horiz-adv-x="1237" 
d="M561 1339q0 -68 -46 -114.5t-114 -46.5q-69 0 -115 46t-46 115q0 64 48 112t113 48q66 0 113 -47t47 -113zM997 1339q0 -68 -45.5 -114.5t-113.5 -46.5q-69 0 -115.5 46t-46.5 115q0 65 48.5 112.5t113.5 47.5q66 0 112.5 -47t46.5 -113z" />
    <glyph glyph-name="c6465" horiz-adv-x="1104" 
d="M932 1452q-36 -136 -132 -205t-247 -69q-152 0 -250 70t-131 204l197 55q19 -77 65.5 -116t118.5 -39t116 38t64 117z" />
    </font>
</defs>
</svg>
